BitTorrent клиенты



Дамочки / Lejdis (Томаш Конецки / Tomasz Konecki) [2008, Польша, комедия, BDRip 1080p] VO + Original (Pol)

Ответить на тему
 
Автор Сообщение

Вектор ®

Пол: Не указан

Стаж: 1 год

Сообщений: 4450

Создавать темы 05-Фев-2018 18:19

[Цитировать]

Дамы / Lejdis
Год выпуска: 2008
Страна: Польша
Жанр: комедия
Продолжительность: 02:13:47
Перевод: Одноголосый закадровый
Субтитры: нет
Оригинальная аудиодорожка: польский
Режиссер: Томаш Конецки / Tomasz Konecki
В ролях: Петр Адамчик, Магдалена Бочарска, Петр Боровски, Данута Борсук, Рафал Цешински, Витольд Дебицки, Анна Дерезовска, Ян Энглерт
Описание: История, рассказывающая о жизни четырёх девушек, которые не в состоянии понять абсурдальный, по их мнению, мир мужчин. Всем, кому понравился фильм режиссера "Полушутя", предлагаем новый польский вариант "Секс в городе", "Дневник Бриджит Джонс"... Искрометный и радостный, нежный и весёлый, ироничный... Бог мой - это ж скока раз в фильме девушкам дарят цветы!? Девичья радость! Ну и всем, кто страдает легкой весенней депрессией...
Тип релиза: BDRip 1080p
Контейнер: MKV
Видео: x264@L5.1, 1920x1080, 8052 Kbps, 25 fps
Аудио1: Русский, AC3, 2.0, 48 KHz, 192 Kbps
Аудио2: Польский, AC3, 6 ch, 48 KHz, 448 Kbps

MediaInfo

General
Unique ID : 246114040739149672926824171994530066768 (0xB927D70F70FEA26F88F717DE44823150)
Complete name : C:\torrent\Lejdis 2008 1080p BluRay AC3 x264 ХДСиндикат.mkv
Format : Matroska
Format version : Version 1
File size : 8.12 GiB
Duration : 2 h 13 min
Overall bit rate : 8 690 kb/s
Encoded date : UTC 2009-05-09 11:17:47
Writing application : mkvmerge v2.1.0 ('Another Place To Fall') built on Aug 19 2007 13:40:07
Writing library : libebml v0.7.7 + libmatroska v0.8.1
Video
ID : 1
Format : AVC
Format/Info : Advanced Video Codec
Format profile : High@L5.1
Format settings : CABAC / 4 Ref Frames
Format settings, CABAC : Yes
Format settings, RefFrames : 4 frames
Format settings, GOP : N=1
Codec ID : V_MPEG4/ISO/AVC
Duration : 2 h 13 min
Bit rate : 8 052 kb/s
Width : 1 920 pixels
Height : 1 080 pixels
Display aspect ratio : 16:9
Frame rate mode : Constant
Frame rate : 25.000 FPS
Color space : YUV
Chroma subsampling : 4:2:0
Bit depth : 8 bits
Scan type : Progressive
Bits/(Pixel*Frame) : 0.155
Stream size : 7.36 GiB (91%)
Title : x264
Writing library : x264 core 67 r1143M 7554705
Encoding settings : cabac=1 / ref=4 / deblock=1:-3:-3 / analyse=0x3:0x133 / me=umh / subme=9 / psy_rd=1.3:0.0 / mixed_ref=1 / me_range=16 / chroma_me=1 / trellis=1 / 8x8dct=1 / cqm=0 / deadzone=21,11 / chroma_qp_offset=-2 / threads=6 / nr=0 / decimate=1 / mbaff=0 / bframes=5 / b_pyramid=1 / b_adapt=2 / b_bias=0 / direct=3 / wpredb=1 / keyint=250 / keyint_min=25 / scenecut=40 / rc=2pass / bitrate=8052 / ratetol=1.0 / qcomp=0.60 / qpmin=10 / qpmax=51 / qpstep=4 / cplxblur=20.0 / qblur=0.5 / vbv_maxrate=60000 / vbv_bufsize=60000 / ip_ratio=1.40 / pb_ratio=1.30 / aq=1:0.70
Language : English
Default : Yes
Forced : No
Audio #1
ID : 2
Format : AC-3
Format/Info : Audio Coding 3
Codec ID : A_AC3
Duration : 2 h 13 min
Bit rate mode : Constant
Bit rate : 192 kb/s
Channel(s) : 2 channels
Channel positions : Front: L R
Sampling rate : 48.0 kHz
Frame rate : 31.250 FPS (1536 SPF)
Bit depth : 16 bits
Compression mode : Lossy
Stream size : 184 MiB (2%)
Service kind : Complete Main
Default : No
Forced : No
Audio #2
ID : 3
Format : AC-3
Format/Info : Audio Coding 3
Codec ID : A_AC3
Duration : 2 h 13 min
Bit rate mode : Constant
Bit rate : 448 kb/s
Channel(s) : 6 channels
Channel positions : Front: L C R, Side: L R, LFE
Sampling rate : 48.0 kHz
Frame rate : 31.250 FPS (1536 SPF)
Bit depth : 16 bits
Compression mode : Lossy
Stream size : 429 MiB (5%)
Title : AC-3
Language : Polish
Service kind : Complete Main
Default : Yes
Forced : No

Скриншоты

[Профиль] [ЛС]
Показать сообщения:    
Ответить на тему

Текущее время: 19-Фев 16:22

Часовой пояс: UTC + 3



Вы не можете начинать темы
Вы не можете отвечать на сообщения
Вы не можете редактировать свои сообщения
Вы не можете удалять свои сообщения
Вы не можете голосовать в опросах
Вы не можете прикреплять файлы к сообщениям
Вы можете скачивать файлы