BitTorrent клиенты



Тринадцатый этаж / 13-ый этаж / The Thirteenth Floor (Джозеф Руснак / Josef Rusnak) [1999, Германия, США, фантастика, триллер, мелодрама, детектив, HDTVRip 720p] [Open Matte]

Ответить на тему
 
Автор Сообщение

Вектор ®

Пол: Не указан

Стаж: 1 год

Сообщений: 4452

Создавать темы 05-Фев-2018 18:13

[Цитировать]

Тринадцатый этаж / Thirteenth Floor, The
Год выпуска: 1999
Страна: США
Жанр: Фантастика, триллер, мелодрама
Продолжительность: 01:40:26
Перевод: Профессиональный (многоголосый, закадровый)
Русские субтитры: есть
Режиссер: Джозеф Руснак
В ролях: Крэйг Бирко, Гретхен Мол, Винсент Д'Онофрио, Деннис Хэйсберт, Стивен Шаб, Армин Мюллер-Шталь
Описание: На 13-ом этаже компьютерной корпорации была разработана совершенная модель виртуальной реальности, создание которой повлекло за собой цепь таинственный убийств. Разгадать загадку можно лишь погрузившись в иное измерение, где может быть ответ на многие вопросы, а может быть - страшная нереальность… Любители виртуальной реальности оценят красоту замысла и потрясающие спецэффекты, и ужас человека, вдруг осознавшего, что он - мертвая программа, прихоть неведомого пользователя.
Качество: HDTVRip
Формат: MKV
Видео кодек: Другой MPEG4
Аудио кодек: AC3
Видео: 1280x688, 23.976 fps, AVC MPEG-4 (x264) ~5853 kbps
Аудио: Аудио#1: Russian: 48 kHz, DD5.1, 384 kbps (Многоголосый закадровый)
Аудио#2: Russian: 48 kHz, DTS.1, 768 kbps (Полное дублирование, отдельным файлом)
Аудио#3: English: 48 kHz, DD5.1, 384 kbps (отдельным файлом)
Субтитры: русские, английские

MediaInfo

Общее
Уникальный идентификатор : 200138427258565932317663619992213411561 (0x9691424E58E423A3AA983B25980E56E9)
Полное имя : W:\12345\13the Floor, The\The.Thirteenth.Floor.720p.HDTVRip.x264.AC3.Rus.mkv
Формат : Matroska
Версия формата : Version 1
Размер файла : 4,37 Гбайт
Продолжительность : 1 ч. 40 м.
Общий поток : 6232 Кбит/сек
Название фильма : The.Thirteenth.Floor.720p.HDTV.x264.AC3.5.1.Eng-SM
Дата кодирования : UTC 2008-05-06 12:54:06
Программа кодирования : mkvmerge v2.0.2 ('You're My Flame') built on Feb 21 2007 23:40:55
Библиотека кодирования : libebml v0.7.7 + libmatroska v0.8.1
Видео
Идентификатор : 1
Формат : AVC
Формат/Информация : Advanced Video Codec
Профиль формата : High@L5.1
Параметр CABAC формата : Да
Параметр ReFrames формата : 6 кадров
Идентификатор кодека : V_MPEG4/ISO/AVC
Продолжительность : 1 ч. 40 м.
Битрейт : 5849 Кбит/сек
Ширина : 1280 пикселей
Высота : 688 пикселей
Соотношение сторон : 1,85:1
Режим частоты кадров : Постоянный
Частота кадров : 23,976 (24000/1001) кадра/сек
Цветовое пространство : YUV
Субдискретизация насыщенности : 4:2:0
Битовая глубина : 8 бит
Тип развёртки : Прогрессивная
Бит/(Пиксели*Кадры) : 0.277
Размер потока : 4,02 Гбайт (92%)
Библиотека кодирования : x264 core 45 svn-501
Настройки программы : cabac=1 / ref=3 / deblock=1:0:0 / analyse=0x3:0x133 / me=hex / subme=6 / brdo=1 / mixed_ref=1 / me_range=16 / chroma_me=1 / trellis=1 / 8x8dct=1 / cqm=0 / chroma_qp_offset=0 / slices=1 / nr=0 / bframes=3 / b_pyramid=1 / b_adapt=1 / b_bias=0 / direct=1 / wpredb=1 / bime=1 / keyint=250 / keyint_min=25 / scenecut=40 / rc=2pass / bitrate=5849 / ratetol=1.0 / rceq='blurCplx^(1-qComp)' / qcomp=0.60 / qpmin=10 / qpmax=51 / qpstep=4 / cplxblur=20.0 / qblur=0.5 / ip_ratio=1.40 / pb_ratio=1.30
Язык : English
Default : Да
Forced : Нет
Аудио
Идентификатор : 5
Формат : AC-3
Формат/Информация : Audio Coding 3
Параметр Endianness формата : Big
Идентификатор кодека : A_AC3
Продолжительность : 1 ч. 40 м.
Вид битрейта : Постоянный
Битрейт : 384 Кбит/сек
Каналы : 6 каналов
Расположение каналов : Front: L C R, Side: L R, LFE
Частота : 48,0 КГц
Частота кадров : 31,250 кадров/сек (1536 spf)
Битовая глубина : 16 бит
Метод сжатия : С потерями
Размер потока : 276 Мбайт (6%)
Заголовок : Русский(Закадровый) DD5.1
Язык : Russian
ServiceKind/String : Complete Main
Default : Да
Forced : Нет
Текст #1
Идентификатор : 3
Формат : UTF-8
Идентификатор кодека : S_TEXT/UTF8
Идентификатор кодека/Информация : UTF-8 Plain Text
Заголовок : Русский
Язык : Russian
Default : Да
Forced : Нет
Текст #2
Идентификатор : 4
Формат : UTF-8
Идентификатор кодека : S_TEXT/UTF8
Идентификатор кодека/Информация : UTF-8 Plain Text
Язык : English
Default : Нет
Forced : Нет

Скриншоты

[Профиль] [ЛС]
Показать сообщения:    
Ответить на тему

Текущее время: 21-Фев 23:34

Часовой пояс: UTC + 3



Вы не можете начинать темы
Вы не можете отвечать на сообщения
Вы не можете редактировать свои сообщения
Вы не можете удалять свои сообщения
Вы не можете голосовать в опросах
Вы не можете прикреплять файлы к сообщениям
Вы можете скачивать файлы