BitTorrent клиенты



Два мира / Les Deux mondes (Дэниэл Коэн) [2007, фэнтези, комедия, BDRip 720p]

Ответить на тему
 
Автор Сообщение

Вектор ®

Пол: Не указан

Стаж: 1 год

Сообщений: 4452

Создавать темы 05-Фев-2018 18:19

[Цитировать]

Два мира / Les Deux mondes
Год выпуска: 2007
Страна: Франция
Жанр: фэнтези, комедия
Продолжительность: 01:43:15
Перевод: Профессиональный (полное дублирование)
Русские субтитры: нет
Режиссер: Дэниэл Коэн
В ролях: Бенуа Пульворде, Наташа Линдинжер, Мишель Дукоссю, Дэниэл Коэн, Паскаль Элсо
Описание: В далеком затерянном параллельном мире жители крохотного племени Бегамени изнывают под гнетом каннибала Зотана. И каждый день они молят небеса о спасителе, который освободил бы их от тирана. А в это время в Париже, в нашем мире, живет типичный неудачник, скромный и никому неизвестный реставратор картин Реми Бассано. На него свалилось сразу 33 несчастья: его мастерскую затопило, он лишился работы и погряз в долгах, плюс ко всему его жена сбежала, бросив слабака.
Теперь Реми должен переехать к предкам и терпеть их капризы. Чем так жить, лучше провалиться сквозь землю! Так и вышло. Реми угодил в дыру в полу родительской квартиры. Через нее он попадает в портал времени и оказывается в племени Бегамени. Туземцы принимают его за долгожданного Мессию... Теперь Реми должен возглавить войну против Зотана и победить целую армию каннибалов! Но разобраться с людоедами гораздо проще, чем с собственной женой и родителями. И это только начало его фантастических приключений и невероятного путешествия по двум мирам...
Доп. информация: Релиз от HDTracker
Качество: BDRip
Формат: MKV
Видео кодек: H.264
Аудио кодек: AC3
Видео: 1280x544, x264, 23.976 fps, ~ 4548 kbps
Аудио: Русский DD 5.1 - 448 kb/s; Французский DTS 5.1 - 1536 kb/s

MediaInfo

General
Unique ID : 170872977548235209123717397660508608030 (0x808CF03BF1B4F1FD86D1B26CE5FBD61E)
Complete name : C:\torrent\Dva.Mira.BDRip.720p.x264.MIF.mkv
Format : Matroska
Format version : Version 1
File size : 4.70 GiB
Duration : 1 h 43 min
Overall bit rate : 6 510 kb/s
Movie name : Fool's Gold (2008)
Encoded date : UTC 2008-06-20 16:03:22
Writing application : mkvmerge v2.2.0 ('Turn It On Again') built on Mar 4 2008 12:58:26
Writing library : libebml v0.7.7 + libmatroska v0.8.1
Video
ID : 1
Format : AVC
Format/Info : Advanced Video Codec
Format profile : High@L5.1
Format settings : CABAC / 5 Ref Frames
Format settings, CABAC : Yes
Format settings, RefFrames : 5 frames
Codec ID : V_MPEG4/ISO/AVC
Duration : 1 h 43 min
Bit rate : 4 548 kb/s
Width : 1 280 pixels
Height : 544 pixels
Display aspect ratio : 2.35:1
Frame rate mode : Constant
Frame rate : 23.976 FPS
Color space : YUV
Chroma subsampling : 4:2:0
Bit depth : 8 bits
Scan type : Progressive
Bits/(Pixel*Frame) : 0.272
Stream size : 3.19 GiB (68%)
Writing library : x264 core 60 r886M 1075536
Encoding settings : cabac=1 / ref=5 / deblock=1:-3:-2 / analyse=0x3:0x2 / me=umh / subme=7 / rdcmp=psy / brdo=1 / mixed_ref=1 / me_range=16 / chroma_me=1 / trellis=1 / 8x8dct=1 / cqm=2 / deadzone=21,11 / chroma_qp_offset=0 / threads=6 / nr=0 / decimate=1 / mbaff=0 / bframes=3 / b_pyramid=1 / b_adapt=1 / b_bias=0 / direct=1 / wpredb=1 / bime=1 / keyint=250 / keyint_min=25 / scenecut=40(pre) / rc=2pass / bitrate=4548 / ratetol=1.0 / rceq='blurCplx^(1-qComp)' / qcomp=1.00 / qpmin=10 / qpmax=51 / qpstep=4 / cplxblur=20.0 / qblur=0.5 / ip_ratio=1.40 / pb_ratio=1.30 / aq=2:1.00
Language : English
Default : Yes
Forced : No
Audio #1
ID : 2
Format : AC-3
Format/Info : Audio Coding 3
Codec ID : A_AC3
Duration : 1 h 43 min
Bit rate mode : Constant
Bit rate : 448 kb/s
Channel(s) : 6 channels
Channel positions : Front: L C R, Side: L R, LFE
Sampling rate : 48.0 kHz
Frame rate : 31.250 FPS (1536 SPF)
Bit depth : 16 bits
Compression mode : Lossy
Stream size : 331 MiB (7%)
Title : DD 5.1 by MIF
Language : Russian
Service kind : Complete Main
Default : Yes
Forced : No
Audio #2
ID : 3
Format : DTS
Format/Info : Digital Theater Systems
Codec ID : A_DTS
Duration : 1 h 43 min
Bit rate mode : Constant
Bit rate : 1 510 kb/s
Channel(s) : 6 channels
Channel positions : Front: L C R, Side: L R, LFE
Sampling rate : 48.0 kHz
Frame rate : 93.750 FPS (512 SPF)
Bit depth : 24 bits
Compression mode : Lossy
Stream size : 1.09 GiB (23%)
Title : DTS 5.1
Language : French
Default : No
Forced : No

Скриншоты

[Профиль] [ЛС]
Показать сообщения:    
Ответить на тему

Текущее время: 21-Фев 23:35

Часовой пояс: UTC + 3



Вы не можете начинать темы
Вы не можете отвечать на сообщения
Вы не можете редактировать свои сообщения
Вы не можете удалять свои сообщения
Вы не можете голосовать в опросах
Вы не можете прикреплять файлы к сообщениям
Вы можете скачивать файлы