BitTorrent клиенты



Элвин и Бурундуки / Alvin and the Chipmunks (Тим Хилл) [2007, семейная комедия, BDRip 1080p]

Ответить на тему
 
Автор Сообщение

Вектор ®

Пол: Не указан

Стаж: 1 год

Сообщений: 4452

Создавать темы 05-Фев-2018 18:14

[Цитировать]

Элвин и Бурундуки / Alvin and the Chipmunks
Год выпуска: 2007
Страна: США
Жанр: семейная комедия
Продолжительность: 01:31:13
Перевод: Профессиональный (полное дублирование)
Русские субтитры: нет
Режиссер: Тим Хилл
В ролях: Джейсон Ли, Дон Тиффани, Дэвид Кросс, Кэмерон Ричардсон, Джейн Линч, Джордан Грин, Оливер Мьюрхед, Вероника Алисино, Колетт Клер, Лиза Ли, озвучание: Росс Багдасарян-мл. (Элвин; Саймон), Джэнис Кэрман (Теодор)
Описание: Всемирно известное музыкальное шоу Элвина и бурундуков пожаловало, наконец, и в Россию. Бурундуки и Дейв Севиль уже завоевали несколько премий "Гремми". У них есть свое телешоу и популярнейший анимационный сериал.
Теперь и у российского зрителя есть возможность оценить трио писклявых мультяшных бурундучков.
Качество: BDRip
Формат: MKV
Видео кодек: H.264
Аудио кодек: DTS
Видео: 1920x1040, H264, 23.976 fps, ~ 13082 kbps
Аудио: Русский DTS 5.1 - 768 kb/s; Английский DTS 5.1 - 1536 kb/s

MediaInfo

General
Unique ID : 206119834549191572734902100752313510897 (0x9B113C7443810088B08952A5527A6BF1)
Complete name : C:\torrent\Elvin.I.Burunduki.BDRip.1080p.x264.MIF.mkv
Format : Matroska
Format version : Version 1
File size : 9.78 GiB
Duration : 1 h 31 min
Overall bit rate : 15.4 Mb/s
Encoded date : UTC 2008-04-04 14:37:18
Writing application : mkvmerge v2.1.0 ('Another Place To Fall') built on Aug 19 2007 13:40:07
Writing library : libebml v0.7.7 + libmatroska v0.8.1
Video
ID : 1
Format : AVC
Format/Info : Advanced Video Codec
Format profile : High@L4.1
Format settings : CABAC / 5 Ref Frames
Format settings, CABAC : Yes
Format settings, RefFrames : 5 frames
Format settings, GOP : N=1
Codec ID : V_MPEG4/ISO/AVC
Duration : 1 h 31 min
Bit rate : 13.1 Mb/s
Width : 1 920 pixels
Height : 1 040 pixels
Display aspect ratio : 1.85:1
Frame rate mode : Constant
Frame rate : 23.976 FPS
Color space : YUV
Chroma subsampling : 4:2:0
Bit depth : 8 bits
Scan type : Progressive
Bits/(Pixel*Frame) : 0.273
Stream size : 8.15 GiB (83%)
Writing library : x264 core 58 r786M aa5391a
Encoding settings : cabac=1 / ref=5 / deblock=1:-3:-2 / analyse=0x3:0x113 / me=umh / subme=7 / me-prepass=0 / brdo=1 / mixed_ref=1 / me_range=16 / chroma_me=1 / trellis=0 / 8x8dct=1 / cqm=2 / deadzone=6,4 / chroma_qp_offset=0 / threads=3 / nr=0 / decimate=0 / mbaff=0 / bframes=3 / b_pyramid=1 / b_adapt=1 / b_bias=0 / direct=3 / wpredb=1 / bime=1 / keyint=250 / keyint_min=25 / scenecut=40(pre) / rc=2pass / bitrate=13081 / ratetol=1.0 / rceq='blurCplx^(1-qComp)' / qcomp=1.00 / qpmin=10 / qpmax=51 / qpstep=4 / cplxblur=20.0 / qblur=0.5 / ip_ratio=1.40 / pb_ratio=1.30 / aq=1:0.5:13.0
Language : English
Default : Yes
Forced : No
Audio #1
ID : 2
Format : DTS
Format/Info : Digital Theater Systems
Codec ID : A_DTS
Duration : 1 h 31 min
Bit rate mode : Constant
Bit rate : 1 509 kb/s
Channel(s) : 6 channels
Channel positions : Front: L C R, Side: L R, LFE
Sampling rate : 48.0 kHz
Frame rate : 93.750 FPS (512 SPF)
Bit depth : 24 bits
Compression mode : Lossy
Stream size : 985 MiB (10%)
Title : DTS 5.1
Language : English
Default : No
Forced : No
Audio #2
ID : 6
Format : DTS
Format/Info : Digital Theater Systems
Codec ID : A_DTS
Duration : 1 h 31 min
Bit rate mode : Constant
Bit rate : 755 kb/s
Channel(s) : 6 channels
Channel positions : Front: L C R, Side: L R, LFE
Sampling rate : 48.0 kHz
Frame rate : 93.750 FPS (512 SPF)
Bit depth : 24 bits
Compression mode : Lossy
Stream size : 492 MiB (5%)
Title : DTS 5.1 by MIF
Language : Russian
Default : Yes
Forced : No
Text #1
ID : 3
Format : UTF-8
Codec ID : S_TEXT/UTF8
Codec ID/Info : UTF-8 Plain Text
Language : English
Default : Yes
Forced : No
Text #2
ID : 4
Format : UTF-8
Codec ID : S_TEXT/UTF8
Codec ID/Info : UTF-8 Plain Text
Language : Romanian
Default : No
Forced : No
Text #3
ID : 5
Format : UTF-8
Codec ID : S_TEXT/UTF8
Codec ID/Info : UTF-8 Plain Text
Language : Swedish
Default : No
Forced : No

Скриншоты

[Профиль] [ЛС]
Показать сообщения:    
Ответить на тему

Текущее время: 21-Фев 23:34

Часовой пояс: UTC + 3



Вы не можете начинать темы
Вы не можете отвечать на сообщения
Вы не можете редактировать свои сообщения
Вы не можете удалять свои сообщения
Вы не можете голосовать в опросах
Вы не можете прикреплять файлы к сообщениям
Вы можете скачивать файлы