Статистика раздачи
Размер:  700 MB   |    Зарегистрирован:  4 месяца 4 дня   |    Скачан:  0 раз

Полного источника не было: Никогда

Личеров:  3  [  0 KB/s  ]  
 
   
 
 

Ласточка ®

Пол:
Не указан
Стаж:
4 месяца 5 дней
Сообщений:
80

Стеклянные бусы
Жанр: детский, семейный, киноповесть, драма
Год выпуска: 1978
Продолжительность: 01:06:57
Режиссёр: Игорь Николаев
В ролях: Людмила Гравес, Бакыт Арстанбеков, Лаймонас Норейка, Валентина Устимович, Дагба Дондуков, Ольга Ким, Сергей Поляков, Валерий Баринов, Виктор Чеботарев, Светлана Коновалова, и др.
Описание: Отец двенадцатилетней Маши большую часть времени проводит в плавании, и живёт в Петропавловске-Камчатском, хотя девочка с мамой в Одессе. Маша давно мечтала о поездке на Камчатку, и вот долгожданный день наступил! Лето и для отца и для девочки пройдёт как один день... Маша два месяца проведёт с отцом на острове Беринга, подружится с алеутом Радиком, и убедит маму вообще не возвращаться в Одессу!

Качество видео: TVRip
Формат видео: AVI
Видео: 512x254 (2.02:1), 25 fps, DivX Codec 6.5.1 ~1322 kbps avg, 0.41 bit/pixel
Аудио: 48 kHz, MPEG Layer 3, 2 ch, ~128.00 kbps avg

AviInfo

File: Stekljannye Busy (1978).avi
FileSize: 699.50 Mb ( 733 480 244 bytes )
Play length: 01:06:57.479 (100437 frames)
Subtitles: Not Present
Video: 512x254 (2.02:1), 25 fps, DivX Codec 6.5.1 ~1322 kbps avg, 0.41 bit/pixel
Audio: 48 kHz, MPEG Layer 3, 2 ch, ~128.00 kbps avg

MediaInfo

Общее
Полное имя : D:\Stekljannye Busy (1978).avi
Формат : AVI
Формат/Информация : Audio Video Interleave
Размер файла : 700 Мбайт
Продолжительность : 1 ч. 6 м.
Общий поток : 1461 Кбит/сек
Программа кодирования : VirtualDubMod 1.5.10.2 (build 2540/release)
Библиотека кодирования : VirtualDub build 23486/release
Видео
Идентификатор : 0
Формат : MPEG-4 Visual
Параметр BVOP формата : Да
Параметр QPel формата : Нет
Параметр GMC формата : Без точки перехода
Параметр матрицы формата : Default (H.263)
Идентификатор кодека : DX50
Идентификатор кодека/Подсказка : DivX 5
Продолжительность : 1 ч. 6 м.
Битрейт : 1323 Кбит/сек
Ширина : 512 пикселей
Высота : 254 пикселя
Соотношение сторон : 2,016
Частота кадров : 25,000 кадров/сек
Цветовое пространство : YUV
Субдискретизация насыщенности : 4:2:0
Битовая глубина : 8 бит
Тип развёртки : Прогрессивная
Метод сжатия : С потерями
Бит/(Пиксели*Кадры) : 0.407
Размер потока : 634 Мбайт (91%)
Библиотека кодирования : DivX 6.5.1 (UTC 2007-03)
Аудио
Идентификатор : 1
Формат : MPEG Audio
Версия формата : Version 1
Профиль формата : Layer 3
Режим : Joint stereo
Расширение режима : MS Stereo
Идентификатор кодека : 55
Идентификатор кодека/Подсказка : MP3
Продолжительность : 1 ч. 6 м.
Вид битрейта : Постоянный
Битрейт : 128 Кбит/сек
Каналы : 2 канала
Частота : 48,0 КГц
Метод сжатия : С потерями
Размер потока : 61,3 Мбайт (9%)
Выравнивание : Разделение по промежуткам
Продолжительность промежутка : 40 мс. (1,00 видеокадр)
Время предзагрузки промежутка : 500 мс.

Скриншот c названием фильма

Скриншоты

В рамках ликвидации приватных раздач, торрент-файл перезагружен 20-Июн-17 00:17.

http://cybertorrent.ru/viewtopic.php?t=5403618-Оформление отредактировано, для приведения в соответствие с действующими правилами раздела "Наше кино" - http://cybertorrent.ru/viewtopic.php?t=2593632 .-Содержимое не менялось. Просьба к ранее скачавшим, скачать новый торрент-файл и присоединиться к раздаче - http://cybertorrent.ru/viewtopic.php?t=3473252 .
[www.cybertorrent.ru].t868.torrent 
Торрент: Зарегистрирован [ 2018-02-15 22:25 ] · C48F91FBA123AC2E05FAB211E49EEC42820F4B7F

Скачать .torrent

Скачать

14 KB

Статус: проверено
Скачан: 0 раз
Размер: 700 MB
Профиль [ЛС]
Показать сообщения:    

Текущее время: 20-Июн 12:57

Часовой пояс: UTC ± 0



Вы не можете начинать темы
Вы не можете отвечать на сообщения
Вы не можете редактировать свои сообщения
Вы не можете удалять свои сообщения
Вы не можете голосовать в опросах
Вы не можете прикреплять файлы к сообщениям
Вы можете скачивать файлы