BitTorrent клиенты



Возмездие (Бахром Якубов) [2007, драма, боевик, DVDRip]

Ответить на тему
 
Автор Сообщение

Angel ®

Пол: Не указан

Стаж: 1 год

Сообщений: 1346

Создавать темы 04-Фев-2018 18:47

[Цитировать]

Возмездие
Год выпуска: 2007
Жанр: драма, боевик
Продолжительность: 01:49:43
Режиссер: Бахром Якубов
В ролях: Шахзода, Гульчехра Ишонкулова, Улугбег Кодиров, Убайдулло Омон
Описание: История о судьбах двух сестер. Однажды Фатима в поисках своего старшего брата, встречает уличную банду Шохруха. В ночь самоубийства своей сестры Фатимы, Зухра теряет не только свою сестру, но также пытавшихся отомстить за Фатиму отца и брата Санджара. После смерти своих близких, Зухра знает только одно имя члена банды Шохруха, как свидетеля убийств. Зухра пытается отомстить, но кому и как?
Доп. информация:
Релиз от:
Все раздачи фильма: Возмездие
Качество: DVDRip
Формат: AVI
Видео кодек: XviD
Аудио кодек: AC3
Видео: 1522 Кбит/с, 720х416
Аудио: AC3, 256 Кбит/с

MI

Код:Общее
Полное имя : C:\otkat\Видео\Возмездие\vozmezdije_[torrents.ru].avi
Формат : AVI
Формат/Информация : Audio Video Interleave
Размер файла : 1,37 Гбайт
Продолжительность : 1 ч. 49 м.
Общий поток : 1783 Кбит/сек
Программа кодирования : VirtualDubMod 1.5.4.1 (build 2178/release)
Библиотека кодирования : VirtualDubMod build 2178/release
Видео
Идентификатор : 0
Формат : MPEG-4 Visual
Профиль формата : Advanced Simple@L5
Параметр BVOP формата : 1
Параметр QPel формата : Нет
Параметр GMC формата : Без точки перехода
Параметр матрицы формата : Выборочная
Идентификатор кодека : XVID
Идентификатор кодека/Подсказка : XviD
Продолжительность : 1 ч. 49 м.
Битрейт : 1520 Кбит/сек
Ширина : 720 пикселей
Высота : 416 пикселей
Соотношение сторон : 1,731
Частота кадров : 25,000 кадров/сек
Цветовое пространство : YUV
Субдискретизация насыщенности : 4:2:0
Битовая глубина : 8 бит
Тип развёртки : Прогрессивная
Метод сжатия : С потерями
Бит/(Пиксели*Кадры) : 0.203
Размер потока : 1,16 Гбайт (85%)
Библиотека кодирования : XviD 1.2.0.dev47 (UTC 2006-11-01)
Аудио
Идентификатор : 1
Формат : AC-3
Формат/Информация : Audio Coding 3
Расширение режима : CM (complete main)
Параметр Endianness формата : Big
Идентификатор кодека : 2000
Продолжительность : 1 ч. 49 м.
Вид битрейта : Постоянный
Битрейт : 256 Кбит/сек
Каналы : 2 канала
Расположение каналов : Front: L R
Частота : 48,0 КГц
Частота кадров : 31,250 кадров/сек (1536 spf)
Метод сжатия : С потерями
Размер потока : 201 Мбайт (14%)
Выравнивание : Разделение по промежуткам
Продолжительность промежутка : 96 мс. (2,40 видеокадра)
Время предзагрузки промежутка : 96 мс.

Скриншоты


Отр. ReDoM
[Профиль] [ЛС]
Показать сообщения:    
Ответить на тему

Текущее время: 23-Фев 00:30

Часовой пояс: UTC + 3



Вы не можете начинать темы
Вы не можете отвечать на сообщения
Вы не можете редактировать свои сообщения
Вы не можете удалять свои сообщения
Вы не можете голосовать в опросах
Вы не можете прикреплять файлы к сообщениям
Вы можете скачивать файлы