Статистика раздачи
Размер:  843 MB   |    Зарегистрирован:  5 месяцев 27 дней   |    Скачан:  0 раз

Полного источника не было: Никогда

 
   
 
 

Ласточка ®

Пол:
Не указан
Стаж:
5 месяцев 27 дней
Сообщений:
451

Не хочу быть взрослым
Жанр: детский, семейный, лирическая комедия
Год выпуска: 1982
Продолжительность: 01:12:49
Режиссёр: Юрий Чулюкин
В ролях: Кирилл Серский-Головко, Елена Валюшкина, Наталья Варлей, Евгений Стеблов, Евгения Мельникова, Михаил Бочаров, Любовь Калюжная, Владимир Зайцев, Нина Агапова, Павел Винник, Евгений Евстигнеев, Юрий Никулин, Игорь Ясулович, Александра Данилова, Зоя Василькова, Янина Лисовская, Людмила Чулюкина, Владимир Дудин, Татьяна Филатова, Александр Масляков, Виктор Филиппов, Анатолий Голик, и др.
Описание: Родители шестилетнего Павлика хотят сделать из своего любимого сына эрудита. Они постоянно заставляют мальчика много читать, учиться и добиваться успехов. Маме с папой так хочется, чтобы их сын во всём был первым!
Однажды Павлик приезжает погостить к своей бабушке в деревню. Бабушка разрешает своему внуку выйти одному на прогулку. Прогулка оборачивается для юного героя весёлым путешествием в Москву...
Сэмпл: http://sendfile.su/1384732
Качество видео: TVRip
Формат видео: AVI
Видео: 704x320 (2.20:1), 25 fps, XviD build 47 ~1512 kbps avg, 0.27 bit/pixel
Аудио: 48 kHz, MPEG Layer 3, 1 ch, ~96.00 kbps avg

AviInfo

File: Не_хочу_быть_взрослым_1982_TVRip_[torrents.ru].avi
Title: Не_хочу_быть_взрослым_1982_TVRip_[torrents.ru]
Comment: TVRip by problesk
FileSize: 842.82 Mb ( 883 765 248 bytes )
Play length: 01:12:49.600 (109240 frames)
Subtitles: Not Present
Video: 704x320 (2.20:1), 25 fps, XviD build 47 ~1512 kbps avg, 0.27 bit/pixel
Audio: 48 kHz, MPEG Layer 3, 1 ch, ~96.00 kbps avg

MediaInfo

Общее
Полное имя : D:\Не_хочу_быть_взрослым_1982_TVRip_[torrents.ru].avi
Формат : AVI
Формат/Информация : Audio Video Interleave
Размер файла : 843 Мбайт
Продолжительность : 1 ч. 12 м.
Общий поток : 1618 Кбит/сек
Название фильма : Не_хочу_быть_взрослым_1982_TVRip_[torrents.ru]
Программа кодирования : VirtualDubModRus 1.5.10.2 (build 2542/release)
Примечание : TVRip by problesk
Видео
Идентификатор : 0
Формат : MPEG-4 Visual
Профиль формата : Advanced Simple@L5
Параметр BVOP формата : 2
Параметр QPel формата : Нет
Параметр GMC формата : Без точки перехода
Параметр матрицы формата : Default (MPEG)
Идентификатор кодека : DX50
Идентификатор кодека/Подсказка : DivX 5
Продолжительность : 1 ч. 12 м.
Битрейт : 1512 Кбит/сек
Ширина : 704 пикселя
Высота : 320 пикселей
Соотношение сторон : 2,2:1
Частота кадров : 25,000 кадров/сек
Цветовое пространство : YUV
Субдискретизация насыщенности : 4:2:0
Битовая глубина : 8 бит
Тип развёртки : Прогрессивная
Метод сжатия : С потерями
Бит/(Пиксели*Кадры) : 0.269
Размер потока : 788 Мбайт (93%)
Библиотека кодирования : XviD 1.2.0.dev47 (UTC 2006-11-01)
Аудио
Идентификатор : 1
Формат : MPEG Audio
Версия формата : Version 1
Профиль формата : Layer 3
Идентификатор кодека : 55
Идентификатор кодека/Подсказка : MP3
Продолжительность : 1 ч. 12 м.
Вид битрейта : Постоянный
Битрейт : 96,0 Кбит/сек
Каналы : 1 канал
Частота : 48,0 КГц
Метод сжатия : С потерями
Размер потока : 50,0 Мбайт (6%)
Выравнивание : Разделение по промежуткам
Продолжительность промежутка : 40 мс. (1,00 видеокадр)
Время предзагрузки промежутка : 500 мс.

Скриншот c названием фильма

Скриншоты

В рамках ликвидации приватных раздач, торрент-файл перезагружен 12-Июн-17 15:47.

http://cybertorrent.ru/viewtopic.php?t=5403618-В файле был обнаружен -

"Режим смешивания: Сжатый битовый поток",

Общее
Полное имя : F:\Ne.hochu.byt.vzroslym(Rus.Xvid.1982).avi
Формат : AVI
Формат/Информация : Audio Video Interleave
Размер файла : 843 Мбайт
Продолжительность : 1 ч. 12 м.
Общий поток : 1618 Кбит/сек
Название фильма : Ne.hochu.byt.vzroslym(Rus.Xvid.1982)
Программа кодирования : VirtualDubModRus 1.5.10.2 (build 2540/release) VirtualDubMod build 2540/release
Примечание : TVRip by problesk
Видео
Идентификатор : 0
Формат : MPEG-4 Visual
Профиль формата : Advanced Simple@L5
Настройки формата : BVOP2
Параметр BVOP формата : 2
Параметр QPel формата : Нет
Параметр GMC формата : Без точки перехода
Параметр матрицы формата : Default (MPEG)
Режим смешивания : Сжатый битовый поток
Идентификатор кодека : XVID
Идентификатор кодека/Подсказка : XviD
Продолжительность : 1 ч. 12 м.
Битрейт : 1513 Кбит/сек
Ширина : 704 пикселя
Высота : 320 пикселей
Соотношение сторон : 5:4
Соотношение сторон в оригинале : 2,2:1
Частота кадров : 25,000 кадров/сек
Цветовое пространство : YUV
Субдискретизация насыщенности : 4:2:0
Битовая глубина : 8 бит
Тип развёртки : Прогрессивная
Метод сжатия : С потерями
Бит/(Пиксели*Кадры) : 0.269
Размер потока : 788 Мбайт (93%)
Библиотека кодирования : XviD 1.2.0.dev47 (UTC 2006-11-01)
Аудио
Идентификатор : 1
Формат : MPEG Audio
Версия формата : Version 1
Профиль формата : Layer 3
Идентификатор кодека : 55
Идентификатор кодека/Подсказка : MP3
Продолжительность : 1 ч. 12 м.
Вид битрейта : Постоянный
Битрейт : 96,0 Кбит/сек
Каналы : 1 канал
Частота : 48,0 КГц
Метод сжатия : С потерями
Размер потока : 50,0 Мбайт (6%)
Выравнивание : Разделение по промежуткам
Продолжительность промежутка : 40 мс. (1,00 видеокадр)
Время предзагрузки промежутка : 500 мс.
Язык : Не определен
который был устранён с помощью "MPEG4 Modifier" - http://cybertorrent.ru/viewtopic.php?t=4452634. Затем файл был пропущен через "VirtualDubMod", и переименован - "Ne.hochu.byt.vzroslym(Rus.Xvid.1982).avi" --> "Не_хочу_быть_взрослым_1982_TVRip_[torrents.ru].avi".-Оформление отредактировано, для приведения в соответствие с действующими правилами раздела "Наше кино" - http://cybertorrent.ru/viewtopic.php?t=2593632 .-Просьба к ранее скачавшим, скачать новый торрент-файл, затем скачать обновлённый файл, и присоединиться к раздаче - http://cybertorrent.ru/viewtopic.php?t=3473252 .
[www.cybertorrent.ru].t831.torrent 
Торрент: Зарегистрирован [ 2018-02-15 22:25 ] · 4A76DF7205219B98856B88B63A3A9983096D3A73

Скачать .torrent

Скачать

17 KB

Статус: проверено
Скачан: 0 раз
Размер: 843 MB
Профиль [ЛС]
Показать сообщения:    

Текущее время: 15-Авг 04:59

Часовой пояс: UTC ± 0



Вы не можете начинать темы
Вы не можете отвечать на сообщения
Вы не можете редактировать свои сообщения
Вы не можете удалять свои сообщения
Вы не можете голосовать в опросах
Вы не можете прикреплять файлы к сообщениям
Вы можете скачивать файлы
Torrents24.ru открытый BitTorrent Torrents24.pl открытый BitTorrent CyberTorrent.ru открытый BitTorrent BtList.ru рейтинг BitTorrent трекеров Яндекс.Метрика