Статистика раздачи
Размер:  698 MB   |    Зарегистрирован:  5 месяцев 27 дней   |    Скачан:  0 раз

Полного источника не было: Никогда

 
   
 
 

Ласточка ®

Пол:
Не указан
Стаж:
5 месяцев 27 дней
Сообщений:
451

Что с тобой происходит?
Жанр: Детский, семейный, киноповесть
Год выпуска: 1975
Продолжительность: 01:07:49
Режиссёр: Владимир Саруханов
В ролях: Вячеслав Баранов, Оля Пономарева, Борис Зайденберг, Данута Столярская, Лилиана Алешникова, Галина Орлова, Марина Гаврилко, Александр Ефимов, Александр Дубровин, Нина Саруханова, Елена Гнускова, Василий Агапов, Вадим Мадянов, Людмила Карауш, Иван Рыжов, Яков Беленький, Василий Векшин, Юрий Пузырёв, Маргарита Корабельникова, Елена Максимова, Зоя Толбузина, Николай Погодин, и др.
Описание: Шестиклассник Митя Громов хочет остаться на второй год, потому что ему нравится Нина, которая по всей видимости не перейдёт с ним в следующий класс. Ещё он пытается спасти старую лошадь, которую ведут на бойню, но действует при этом незаконно. А потом, помогая однокласснику Ване в учёбе, похищает его из дома… Как долго эти странности будут продолжаться Митя не знает, а родители терпят и ждут, когда же закончится это жуткое для их сына время — переходный возраст.

Качество видео: TVRip
Формат видео: AVI
Видео: 512x262 (1.95:1), 25 fps, DivX Codec 6.5.1 ~1301 kbps avg, 0.39 bit/pixel
Аудио: 48 kHz, MPEG Layer 3, 2 ch, ~128.00 kbps avg

AviInfo

File: Что_с_тобой_происходит_1975_TVRip_[torrents.ru].avi
FileSize: 698.08 Mb ( 731 985 920 bytes )
Play length: 01:07:49.399 (101735 frames)
Subtitles: Not Present
Video: 512x262 (1.95:1), 25 fps, DivX Codec 6.5.1 ~1301 kbps avg, 0.39 bit/pixel
Audio: 48 kHz, MPEG Layer 3, 2 ch, ~128.00 kbps avg

MediaInfo

Общее
Полное имя : D:\Что_с_тобой_происходит_1975_TVRip_[torrents.ru].avi
Формат : AVI
Формат/Информация : Audio Video Interleave
Размер файла : 698 Мбайт
Продолжительность : 1 ч. 7 м.
Общий поток : 1439 Кбит/сек
Программа кодирования : VirtualDubModRus 1.5.10.2 (build 2542/release)
Библиотека кодирования : VirtualDubMod build 2542/release
Видео
Идентификатор : 0
Формат : MPEG-4 Visual
Параметр BVOP формата : 1
Параметр QPel формата : Нет
Параметр GMC формата : Без точки перехода
Параметр матрицы формата : Default (H.263)
Идентификатор кодека : DX50
Идентификатор кодека/Подсказка : DivX 5
Продолжительность : 1 ч. 7 м.
Битрейт : 1301 Кбит/сек
Ширина : 512 пикселей
Высота : 262 пикселя
Соотношение сторон : 1,954
Частота кадров : 25,000 кадров/сек
Цветовое пространство : YUV
Субдискретизация насыщенности : 4:2:0
Битовая глубина : 8 бит
Тип развёртки : Прогрессивная
Метод сжатия : С потерями
Бит/(Пиксели*Кадры) : 0.388
Размер потока : 631 Мбайт (90%)
Библиотека кодирования : DivX 6.5.1 (UTC 2007-03)
Аудио
Идентификатор : 1
Формат : MPEG Audio
Версия формата : Version 1
Профиль формата : Layer 3
Режим : Joint stereo
Расширение режима : MS Stereo
Идентификатор кодека : 55
Идентификатор кодека/Подсказка : MP3
Продолжительность : 1 ч. 7 м.
Вид битрейта : Постоянный
Битрейт : 128 Кбит/сек
Каналы : 2 канала
Частота : 48,0 КГц
Метод сжатия : С потерями
Размер потока : 62,1 Мбайт (9%)
Выравнивание : Разделение по промежуткам
Продолжительность промежутка : 40 мс. (1,00 видеокадр)
Время предзагрузки промежутка : 500 мс.

Скриншот c названием фильма

Скриншоты

В рамках ликвидации приватных раздач, торрент-файл перезагружен 25-Май-17 01:34.

http://cybertorrent.ru/viewtopic.php?t=5403618-В файле был обнаружен -

"Режим смешивания: Сжатый битовый поток",

Общее
Полное имя : F:\chto.s.toboj.proishodit[torrents.ru].avi
Формат : AVI
Формат/Информация : Audio Video Interleave
Размер файла : 698 Мбайт
Продолжительность : 1 ч. 7 м.
Общий поток : 1440 Кбит/сек
Программа кодирования : VirtualDubMod 1.5.10.2 (build 2540/release)
Библиотека кодирования : VirtualDub build 23486/release
Видео
Идентификатор : 0
Формат : MPEG-4 Visual
Настройки формата : BVOP1
Параметр BVOP формата : 1
Параметр QPel формата : Нет
Параметр GMC формата : Без точки перехода
Параметр матрицы формата : Default (H.263)
Режим смешивания : Сжатый битовый поток
Идентификатор кодека : DX50
Идентификатор кодека/Подсказка : DivX 5
Продолжительность : 1 ч. 7 м.
Битрейт : 1302 Кбит/сек
Номинальный битрейт : 4854 Кбит/сек
Ширина : 512 пикселей
Высота : 262 пикселя
Соотношение сторон : 1,954
Частота кадров : 25,000 кадров/сек
Цветовое пространство : YUV
Субдискретизация насыщенности : 4:2:0
Битовая глубина : 8 бит
Тип развёртки : Прогрессивная
Метод сжатия : С потерями
Бит/(Пиксели*Кадры) : 0.388
Размер потока : 632 Мбайт (90%)
Библиотека кодирования : DivX 6.5.1 (UTC 2007-03)
Аудио
Идентификатор : 1
Формат : MPEG Audio
Версия формата : Version 1
Профиль формата : Layer 3
Настройки формата : Joint stereo / MS Stereo
Режим : Joint stereo
Расширение режима : MS Stereo
Идентификатор кодека : 55
Идентификатор кодека/Подсказка : MP3
Продолжительность : 1 ч. 7 м.
Вид битрейта : Постоянный
Битрейт : 128 Кбит/сек
Каналы : 2 канала
Частота : 48,0 КГц
Метод сжатия : С потерями
Размер потока : 62,1 Мбайт (9%)
Выравнивание : Разделение по промежуткам
Продолжительность промежутка : 40 мс. (1,00 видеокадр)
Время предзагрузки промежутка : 500 мс.
который был устранён с помощью "MPEG4 Modifier" - http://cybertorrent.ru/viewtopic.php?t=4452634. Затем файл был пропущен через "VirtualDubMod", и переименован - "chto.s.toboj.proishodit[torrents.ru].avi" --> "Что_с_тобой_происходит_1975_TVRip_[torrents.ru].avi".-Оформление отредактировано, для приведения в соответствие с действующими правилами раздела "Наше кино" - http://cybertorrent.ru/viewtopic.php?t=2593632 .-Просьба к ранее скачавшим, скачать новый торрент-файл, затем скачать обновлённый файл, и присоединиться к раздаче - http://cybertorrent.ru/viewtopic.php?t=3473252 .
[www.cybertorrent.ru].t826.torrent 
Торрент: Зарегистрирован [ 2018-02-15 22:25 ] · E03E40445F0BDFEDBDF0DB73335B05F9E6C96A74

Скачать .torrent

Скачать

14 KB

Статус: проверено
Скачан: 0 раз
Размер: 698 MB
Профиль [ЛС]
Показать сообщения:    

Текущее время: 15-Авг 08:33

Часовой пояс: UTC ± 0



Вы не можете начинать темы
Вы не можете отвечать на сообщения
Вы не можете редактировать свои сообщения
Вы не можете удалять свои сообщения
Вы не можете голосовать в опросах
Вы не можете прикреплять файлы к сообщениям
Вы можете скачивать файлы
Torrents24.ru открытый BitTorrent Torrents24.pl открытый BitTorrent CyberTorrent.ru открытый BitTorrent BtList.ru рейтинг BitTorrent трекеров Яндекс.Метрика