BitTorrent клиенты



Терминатор 2: Судный день / Terminator 2: Judgement Day (Джеймс Кэмерон /James Cameron) [1991, США,Франция, фантастика, боевик, триллер, DVDRip][Кинотеатральная версия / Theatrical Cut] 2x AVO (Гаврилов,Дохалов)

Ответить на тему
 
Автор Сообщение

Frozen ®

Пол: Не указан

Стаж: 1 год

Сообщений: 231

Создавать темы 04-Фев-2018 18:48

[Цитировать]

Терминатор 2: Судный день [Кинотеатральная версия]Terminator 2: Judgement Day [Theatrical Cut]- -Страна: США, Франция
Жанр: фантастика, боевик, триллер
Год выпуска: 1991
Продолжительность: 02:17:17-Перевод 1: Авторский (одноголосый закадровый) А. Гаврилов
Перевод 2: Авторский (одноголосый закадровый) В. Дохалов
Субтитры: нет
Режиссер: Джеймс Кэмерон /James Cameron-В ролях: Арнольд Шварценеггер, Линда Хэмилтон, Эдвард Ферлонг, Роберт Патрик, Эрл Боэн, Джо Мортон, С. Ипейта Меркерсон, Кастуло Герра, Дэнни Кукси, Дженетт Голдстин-Описание: Прошло более десяти лет с тех пор, как киборг-терминатор из 2029 года пытался уничтожить Сару Коннор — женщину, чей будущий сын выиграет войну человечества против машин.
Теперь у Сары родился сын Джон и время, когда он поведёт за собой выживших людей на борьбу с машинами, неумолимо приближается. Именно в этот момент из постапокалиптического будущего прибывает новый терминатор — практически неуязвимый и способный принимать любое обличье. Цель нового терминатора уже не Сара, а уничтожение молодого Джона Коннора.
Однако шансы Джона на спасение существенно повышаются, когда на помощь приходит перепрограммированный сопротивлением терминатор предыдущего поколения. Оба киборга вступают в смертельный бой, от исхода которого зависит судьба человечества.-Качество видео: DVDRip
Формат видео: AVI-Видео: 672x288 (2.35:1), 23.976 fps, ~1 686 Kbps avg, 0.36 bit/pixel
Аудио# 1: 44.1 kHz, MP3, 2/0 (R,L) ch, ~192 kbps avg
Аудио# 2: 44.1 kHz, MP3, 2/0 (R,L) ch, ~192 kbps avg-

MediaInfo

General
Complete name :
Format : AVI
Format/Info : Audio Video Interleave
Format profile : OpenDML
File size : 2.00 GiB
Duration : 2 h 17 min
Overall bit rate : 2 087 kb/s
Writing application : VirtualDubMod 1.5.10.1 (build 2366/release)
Writing library : VirtualDubMod build 2366/release
Video
ID : 0
Format : MPEG-4 Visual
Format profile : Advanced Simple@L5
Format settings : BVOP1 / Custom Matrix
Format settings, BVOP : 1
Format settings, QPel : No
Format settings, GMC : No warppoints
Format settings, Matrix : Custom
Codec ID : XVID
Codec ID/Hint : XviD
Duration : 2 h 17 min
Bit rate : 1 686 kb/s
Width : 672 pixels
Height : 288 pixels
Display aspect ratio : 2.35:1
Frame rate : 23.976 (24000/1001) FPS
Color space : YUV
Chroma subsampling : 4:2:0
Bit depth : 8 bits
Scan type : Progressive
Compression mode : Lossy
Bits/(Pixel*Frame) : 0.363
Stream size : 1.62 GiB (81%)
Writing library : XviD 1.2.0.dev47 (UTC 2006-11-01)
Audio #1
ID : 1
Format : MPEG Audio
Format version : Version 1
Format profile : Layer 3
Codec ID : 55
Codec ID/Hint : MP3
Duration : 2 h 16 min
Bit rate mode : Constant
Bit rate : 192 kb/s
Channel(s) : 2 channels
Sampling rate : 44.1 kHz
Compression mode : Lossy
Stream size : 188 MiB (9%)
Alignment : Split accross interleaves
Interleave, duration : 42 ms (1.01 video frame)
Interleave, preload duration : 500 ms
Language : Russian
Audio #2
ID : 2
Format : MPEG Audio
Format version : Version 1
Format profile : Layer 3
Codec ID : 55
Codec ID/Hint : MP3
Duration : 2 h 16 min
Bit rate mode : Constant
Bit rate : 192 kb/s
Channel(s) : 2 channels
Sampling rate : 44.1 kHz
Compression mode : Lossy
Stream size : 188 MiB (9%)
Alignment : Split accross interleaves
Interleave, duration : 42 ms (1.00 video frame)
Interleave, preload duration : 500 ms
Language : English

Скриншоты



Цитата:
Примечание: DVDRip для этой раздачи сделан с DVD, который любезно предоставил ilya29, за что ему отдельное спасибо. Звуковые дорожки скачаны с трекера (отсюда и отсюда). Сведено с помощью VirtualDubMod и SoundForge. Если Вас интересует этот фильм в многоголосом переводе, то рипа театральной версии я тут не нашел, а режиссерок - как ерунды за баней (например эта).
[Профиль] [ЛС]
Показать сообщения:    
Ответить на тему

Текущее время: 23-Фев 00:06

Часовой пояс: UTC + 3



Вы не можете начинать темы
Вы не можете отвечать на сообщения
Вы не можете редактировать свои сообщения
Вы не можете удалять свои сообщения
Вы не можете голосовать в опросах
Вы не можете прикреплять файлы к сообщениям
Вы можете скачивать файлы