BitTorrent клиенты



Новые приключения Дони и Микки (Георгий Бабушкин, Степан Исаакян-Серебряков) [1973, комедия, приключения, телефильм, TVRip]

Ответить на тему
 
Автор Сообщение

JetGun ®

Пол: Не указан

Стаж: 1 год

Сообщений: 437

Создавать темы 04-Фев-2018 18:48

[Цитировать]

Новые приключения Дони и Микки
Жанр: комедия, приключения, телефильм
Год выпуска: 1973
Продолжительность: 01:04:16
Режиссёры: Георгий Бабушкин, Степан Исаакян-Серебряков
В ролях: Савелий Крамаров, Алексей Смирнов, Лев Лемке, Андрей Миронов, Илья Рутберг, Элла Некрасова, Степан Исаакян, Роман Юрьев-Лунц, и др.
Описание: Телефильм из двух историй, о весёлых приключениях двух обезьянок-шимпанзе — Дони и Микки. В борьбе с окружающими их людскими пороками, обезьянки становятся участниками массы курьёзных и комических ситуаций.
История первая — "Битва за двор": Взрослый хулиган приходит во двор, где играют малыши, и начинает приставать к детям — обезьянки берутся проучить его!
История вторая — Операция "Бегемот": Преступники похищают из цирка бегемота — обезьянки отправляются за ними в погоню!

Качество видео: TVRip
Формат видео: AVI
Видео: 512x384 (1.33:1), 25 fps, DivX Codec 6.1.1 ~1431 kbps avg, 0.29 bit/pixel
Аудио: 48 kHz, MPEG Layer 3, 1 ch, ~96.00 kbps avg

AviInfo

File: Novye.prikljuchenija.Doni.i.Mikki.[torrents.ru].avi
FileSize: 706.95 Mb ( 741 294 080 bytes )
Play length: 01:04:16.639 (96416 frames)
Subtitles: Not Present
Video: 512x384 (1.33:1), 25 fps, DivX Codec 6.1.1 ~1431 kbps avg, 0.29 bit/pixel
Audio: 48 kHz, MPEG Layer 3, 1 ch, ~96.00 kbps avg

MediaInfo

Общее
Полное имя : D:\Novye.prikljuchenija.Doni.i.Mikki.[torrents.ru].avi
Формат : AVI
Формат/Информация : Audio Video Interleave
Размер файла : 707 Мбайт
Продолжительность : 1 ч. 4 м.
Общий поток : 1538 Кбит/сек
Программа кодирования : Nandub v1.0rc2
Библиотека кодирования : Nandub build 1853/release
Видео
Идентификатор : 0
Формат : MPEG-4 Visual
Параметр BVOP формата : Нет
Параметр QPel формата : Нет
Параметр GMC формата : Без точки перехода
Параметр матрицы формата : Default (H.263)
Идентификатор кодека : DX50
Идентификатор кодека/Подсказка : DivX 5
Продолжительность : 1 ч. 4 м.
Битрейт : 1432 Кбит/сек
Ширина : 512 пикселей
Высота : 384 пикселя
Соотношение сторон : 4:3
Частота кадров : 25,000 кадров/сек
Цветовое пространство : YUV
Субдискретизация насыщенности : 4:2:0
Битовая глубина : 8 бит
Тип развёртки : Прогрессивная
Метод сжатия : С потерями
Бит/(Пиксели*Кадры) : 0.291
Размер потока : 658 Мбайт (93%)
Библиотека кодирования : DivX 6.1.1 (UTC 2006-02-01)
Аудио
Идентификатор : 1
Формат : MPEG Audio
Версия формата : Version 1
Профиль формата : Layer 3
Идентификатор кодека : 55
Идентификатор кодека/Подсказка : MP3
Продолжительность : 1 ч. 4 м.
Вид битрейта : Постоянный
Битрейт : 96,0 Кбит/сек
Каналы : 1 канал
Частота : 48,0 КГц
Метод сжатия : С потерями
Размер потока : 44,1 Мбайт (6%)
Выравнивание : Разделение по промежуткам
Продолжительность промежутка : 40 мс. (1,00 видеокадр)
Время предзагрузки промежутка : 500 мс.

Скриншоты с названиями + Скриншоты

В рамках ликвидации приватных раздач, торрент-файл перезагружен 12-Июн-17 23:09.

http://rutracker.org/forum/viewtopic.php?t=5403618-Файл переименован - "Novye.prikljuchenija.Doni.i.Miki[torrents.ru].avi" --> "Novye.prikljuchenija.Doni.i.Mikki.[torrents.ru].avi".-Оформление отредактировано, для приведения в соответствие с действующими правилами раздела "Наше кино" - http://rutracker.org/forum/viewtopic.php?t=2593632 .-Просьба к ранее скачавшим, скачать новый торрент-файл и присоединиться к раздаче - http://rutracker.org/forum/viewtopic.php?t=3473252 .
[Профиль] [ЛС]
Показать сообщения:    
Ответить на тему

Текущее время: 23-Фев 00:30

Часовой пояс: UTC + 3



Вы не можете начинать темы
Вы не можете отвечать на сообщения
Вы не можете редактировать свои сообщения
Вы не можете удалять свои сообщения
Вы не можете голосовать в опросах
Вы не можете прикреплять файлы к сообщениям
Вы можете скачивать файлы