Статистика раздачи
Размер:  1,76 GB   |    Зарегистрирован:  6 месяцев 2 дня   |    Скачан:  0 раз

Полного источника не было: Никогда

Личеров:  1  [  0 KB/s  ]  
 
   
 
 

soda ®

Пол:
Не указан
Стаж:
6 месяцев 3 дня
Сообщений:
212

Последняя фантазия 7: Дети пришествия / Final Fantasy VII: Advent Children
Год выпуска: 2005
Страна: Япония
Жанр: фантастика, боевик, фэнтези, приключения
Продолжительность: 1:41:01
Перевод: (многоголосый, закадровый)
Режиссер: Tetsuya Nomura, Takeshi Nozue
Описание: Прошло два года с тех пор, как команда супербойцов под предводительством Клауда Страйфа спасла мир от кошмарного злодея Сефирота. Настал мир, и могучий Клауд удалился отдел, поселившись в сиротском приюте, чтобы среди детей забыть о кровавых битвах прошлого.
Но покой герою только снится: жителей планеты начинает поражать странная болезнь, а в окрестностях появляется таинственный незнакомец по имени Капай, явно замышляющий дурное. И его недобрые планы как-то связаны с беззащитными сиротами. Поняв, что в мире вновь пробудилось зло, Клауд вновь берет в руки оружие, чтобы защитить мир Последней Фантазии от новой угрозы…
Качество: DVDRip
Формат: AVI
Видео: XVID 688x384 23.976fps 1578Kbps 8 bit
Аудио: Dolby AC3 48000Hz 5ch 448Kbps rus
Dolby AC3 48000Hz 5ch 448Kbps jp

Подобные тех.данные

General
Complete name : ***\Последняя фантазия 7 Дети пришествия.avi
Format : AVI
Format/Info : Audio Video Interleave
File size : 1.76 GiB
Duration : 1 h 41 min
Overall bit rate : 2 489 kb/s
Writing application : FairUse Wizard
Writing library : The best and REALLY easy backup tool
Video
ID : 0
Format : MPEG-4 Visual
Format profile : Advanced Simple@L5
Format settings, BVOP : 1
Format settings, QPel : No
Format settings, GMC : No warppoints
Format settings, Matrix : Default (MPEG)
Muxing mode : Packed bitstream
Codec ID : XVID
Codec ID/Hint : XviD
Duration : 1 h 41 min
Bit rate : 1 579 kb/s
Width : 688 pixels
Height : 384 pixels
Display aspect ratio : 16:9
Frame rate : 23.976 (24000/1001) FPS
Color space : YUV
Chroma subsampling : 4:2:0
Bit depth : 8 bits
Scan type : Progressive
Compression mode : Lossy
Bits/(Pixel*Frame) : 0.249
Stream size : 1.11 GiB (63%)
Writing library : XviD 1.2.0.dev47 (UTC 2006-11-01)
Audio #1
ID : 1
Format : AC-3
Format/Info : Audio Coding 3
Format settings, Endianness : Big
Codec ID : 2000
Duration : 1 h 41 min
Bit rate mode : Constant
Bit rate : 448 kb/s
Channel(s) : 6 channels
Channel positions : Front: L C R, Side: L R, LFE
Sampling rate : 48.0 kHz
Frame rate : 31.250 FPS (1536 spf)
Bit depth : 16 bits
Compression mode : Lossy
Stream size : 324 MiB (18%)
Alignment : Split accross interleaves
Interleave, duration : 42 ms (1.00 video frame)
Interleave, preload duratio : 500 ms
Service kind : Complete Main
Audio #2
ID : 2
Format : AC-3
Format/Info : Audio Coding 3
Format settings, Endianness : Big
Codec ID : 2000
Duration : 1 h 41 min
Bit rate mode : Constant
Bit rate : 448 kb/s
Channel(s) : 6 channels
Channel positions : Front: L C R, Side: L R, LFE
Sampling rate : 48.0 kHz
Frame rate : 31.250 FPS (1536 spf)
Bit depth : 16 bits
Compression mode : Lossy
Stream size : 324 MiB (18%)
Alignment : Split accross interleaves
Interleave, duration : 42 ms (1.00 video frame)
Interleave, preload duratio : 500 ms
Service kind : Complete Main

Скриншоты

[www.cybertorrent.ru].t773.torrent 
Торрент: Зарегистрирован [ 2018-02-15 22:25 ] · B0D76E6118FFB606D74F7E261873344AD13F327F

Скачать .torrent

Скачать

18 KB

Статус: проверено
Скачан: 0 раз
Размер: 1,76 GB
Профиль [ЛС]
Показать сообщения:    

Текущее время: 18-Авг 20:29

Часовой пояс: UTC ± 0



Вы не можете начинать темы
Вы не можете отвечать на сообщения
Вы не можете редактировать свои сообщения
Вы не можете удалять свои сообщения
Вы не можете голосовать в опросах
Вы не можете прикреплять файлы к сообщениям
Вы можете скачивать файлы
Torrents24.ru открытый BitTorrent Torrents24.pl открытый BitTorrent CyberTorrent.ru открытый BitTorrent BtList.ru рейтинг BitTorrent трекеров Яндекс.Метрика