BitTorrent клиенты



Что с моим сердцем / Koi Mere Dil Mein Hai [2005, Индия, Мелодрама, DVDRip] MVO

Ответить на тему
 
Автор Сообщение

Alex ®

Пол: Не указан

Стаж: 1 год

Сообщений: 855

Создавать темы 04-Фев-2018 18:48

[Цитировать]

Что с моим сердцем / Koi Mere Dil Mein Hai- Год выпуска: 2005
Страна: Индия
Жанр: Мелодрама
Продолжительность: 02:52:11-Перевод: Профессиональный (многоголосый, закадровый)
Субтитры: нет-Режиссер: Дипак Рамсей-В ролях: Дия Мирза, Садашив Амрапуркар, Ракеш Бапат, Рита Бхатури, Прияншу Чаттерджи, Неха-Описание: Радж, сын состоятельных родителей, влюблен в учительницу своей младшей сестры, Ашу. Поэтому у него нет никакого желания жениться на Симран, дочке друга отца, которую родители прочат ему в невесты. Да и Симран не горит желанием связывать себя семейными узами с Раджем. Ее сердце отдано талантливому певцу Самиру. Но неожиданно выясняется, что Аша и Самир помолвлены друг с другом...-http://multi-up.com/1162378-Качество: DVDRip
Формат: AVI
Видео кодек: DivX
Аудио кодек: AC3
Видео: 720x336, 23.976 fps, DivX, 1267 Kbps, 0.21 Bits/Pixel
Аудио: 48 kHz, AC3 Dolby Digital, 3/2 (L,C,R,l,r) + LFE ch, 384 Kbps

MediaInfo

General
Complete name : Downloads\Chto_S_Moim_Serdcem
Format : AVI
Format/Info : Audio Video Interleave
Format profile : OpenDML
File size : 2.00 GiB
Duration : 2h 52mn
Overall bit rate : 1 660 Kbps
Writing application : VirtualDubMod 1.5.4.1 (build 2178/release)
Writing library : VirtualDubMod build 2178/release
Video #0
ID : 0
Format : MPEG-4 Visual
Format settings, BVOP : 1
Format settings, QPel : No
Format settings, GMC : No warppoints
Format settings, Matrix : Default (H.263)
Muxing mode : Packed bitstream
Codec ID : DX50
Codec ID/Hint : DivX 5
Duration : 2h 52mn
Bit rate : 1 267 Kbps
Width : 720 pixels
Height : 336 pixels
Display aspect ratio : 2.143
Frame rate : 23.976 fps
Color space : YUV
Chroma subsampling : 4:2:0
Bit depth : 8 bits
Scan type : Progressive
Compression mode : Lossy
Bits/(Pixel*Frame) : 0.218
Stream size : 1.52 GiB (76%)
Writing library : DivX 6.1.1 (UTC 2006-02-01)
Audio #1
ID : 1
Format : AC-3
Format/Info : Audio Coding 3
Mode extension : CM (complete main)
Format settings, Endianness : Big
Codec ID : 2000
Duration : 2h 52mn
Bit rate mode : Constant
Bit rate : 384 Kbps
Channel(s) : 6 channels
Channel positions : Front: L C R, Side: L R, LFE
Sampling rate : 48.0 KHz
Bit depth : 16 bits
Compression mode : Lossy
Stream size : 473 MiB (23%)
Alignment : Split accross interleaves
Interleave, duration : 96 ms (2.30 video frames)
Interleave, preload duration : 96 ms
Language : English

Скриншот c названием фильма

Скриншоты

[Профиль] [ЛС]
Показать сообщения:    
Ответить на тему

Текущее время: 23-Фев 00:08

Часовой пояс: UTC + 3



Вы не можете начинать темы
Вы не можете отвечать на сообщения
Вы не можете редактировать свои сообщения
Вы не можете удалять свои сообщения
Вы не можете голосовать в опросах
Вы не можете прикреплять файлы к сообщениям
Вы можете скачивать файлы