BitTorrent клиенты



88 минут / 88 Minutes (Джон Эвнет / Jon Avnet) [2007, США, Германия, Канада, детектив, драма, триллер, DVDRip] MVO + Original Eng

Ответить на тему
 
Автор Сообщение

Angel ®

Пол: Не указан

Стаж: 1 год

Сообщений: 1346

Создавать темы 04-Фев-2018 18:49

[Цитировать]

88 минут / 88 Minutes
Год выпуска: 2007
Страна: США, Германия, Канада
Жанр: Триллер
Продолжительность: 01:47:45
Перевод: Профессиональный (многоголосый, закадровый)
Режиссер: Джон Авнет
В ролях: Аль Пачино, Алисия Уитт, Лили Собески, Бенджамин МакКинзи, Эми Бреннеман, Кара Унгер
Описание: Профессор колледжа получает анонимный звонок. Незнакомец сообщает, что преподавателю осталось жить ровно 88 минут. Теперь герою придется применить все свои знания и опыт, чтобы вычислить убийцу скорее, чем тот приведет приговор в исполнение. Среди подозреваемых - отчаявшийся студент, бывшая любовница и преступник, осужденный на смертную казнь…
Качество: DVDRip
Формат: AVI
Видео: XviD, 1345 kb/s, 640x352, 23,976 кадра/сек
Аудио 1: AC3, 224 kb/s, 2.0, 48 кГц - рус
Аудио 2: AC3, 224 kb/s, 2.0, 48 кГц - англ

Скриншоты

MediaInfo

Общее
Полное имя : T:\88.minut.DVDRip.Rus.KiNOFACK.interfilm.ru.avi
Формат : AVI
Формат/Информация : Audio Video Interleave
Размер файла : 1,36 Гбайт
Продолжительность : 1 ч. 47 м.
Общий поток : 1807 Кбит/сек
Программа кодирования : VirtualDubMod 1.5.10.1 (build 2439/release)
Библиотека кодирования : VirtualDubMod build 2439/release
Видео
Идентификатор : 0
Формат : MPEG-4 Visual
Профиль формата : Advanced Simple@L5
Параметр BVOP формата : 2
Параметр QPel формата : Нет
Параметр GMC формата : Без точки перехода
Параметр матрицы формата : Default (H.263)
Режим смешивания : Сжатый битовый поток
Идентификатор кодека : XVID
Идентификатор кодека/Подсказка : XviD
Продолжительность : 1 ч. 47 м.
Битрейт : 1345 Кбит/сек
Ширина : 640 пикселей
Высота : 352 пикселя
Соотношение сторон : 16:9
Частота кадров : 23,976 кадра/сек
Цветовое пространство : YUV
Субдискретизация насыщенности : 4:2:0
Битовая глубина : 8 бит
Тип развёртки : Прогрессивная
Метод сжатия : С потерями
Бит/(Пиксели*Кадры) : 0.249
Размер потока : 1,01 Гбайт (74%)
Библиотека кодирования : XviD 1.1.2 (UTC 2006-11-01)
Аудио #1
Идентификатор : 1
Формат : AC-3
Формат/Информация : Audio Coding 3
Расширение режима : CM (complete main)
Параметр Endianness формата : Big
Идентификатор кодека : 2000
Продолжительность : 1 ч. 47 м.
Вид битрейта : Постоянный
Битрейт : 224 Кбит/сек
Каналы : 2 канала
Расположение каналов : Front: L R
Частота : 48,0 КГц
Битовая глубина : 16 бит
Метод сжатия : С потерями
Размер потока : 173 Мбайт (12%)
Выравнивание : Разделение по промежуткам
Продолжительность промежутка : 42 мс. (1,00 видеокадр)
Время предзагрузки промежутка : 500 мс.
Аудио #2
Идентификатор : 2
Формат : AC-3
Формат/Информация : Audio Coding 3
Расширение режима : CM (complete main)
Параметр Endianness формата : Big
Идентификатор кодека : 2000
Продолжительность : 1 ч. 47 м.
Вид битрейта : Постоянный
Битрейт : 224 Кбит/сек
Каналы : 2 канала
Расположение каналов : Front: L R
Частота : 48,0 КГц
Битовая глубина : 16 бит
Метод сжатия : С потерями
Размер потока : 173 Мбайт (12%)
Выравнивание : Разделение по промежуткам
Продолжительность промежутка : 42 мс. (1,00 видеокадр)
Время предзагрузки промежутка : 500 мс.
[Профиль] [ЛС]
Показать сообщения:    
Ответить на тему

Текущее время: 20-Фев 06:55

Часовой пояс: UTC + 3



Вы не можете начинать темы
Вы не можете отвечать на сообщения
Вы не можете редактировать свои сообщения
Вы не можете удалять свои сообщения
Вы не можете голосовать в опросах
Вы не можете прикреплять файлы к сообщениям
Вы можете скачивать файлы