Статистика раздачи
Размер:  3,63 GB   |    Зарегистрирован:  9 месяцев 25 дней   |    Скачан:  0 раз

Полного источника не было: Никогда

Личеров:  2  [  0 KB/s  ]  
 
   
 
 

antikvar ®

Пол:
Не указан
Стаж:
9 месяцев 26 дней
Сообщений:
50

[Выпуск 1] | [Выпуск 2] | [Выпуск 3] | [Выпуск 4] | [Выпуск 5]-Человек-паук. Выпуск 4. Человек-паук против Доктора Ока / Spider-Man 4: Spiderman vs Doc Ock
Год выпуска: 1994
Страна: США
Жанр: Мультфильм
Продолжительность: 80 мин.
Перевод: Профессиональный (многоголосый, закадровый)
Режиссер: Лэрри Пэдличи,Джон Семпер
Описание:
Приготовьтесь к еще более головоломным приключениям! На сей раз самый любимый американский супергерой сражается с Доктором Оком и бандой отъявленных негодяев!
Отто Октавиус был блестящим физиком, работавшим над революционным изобретением. Но один из экспериментов привел к мощному взрыву, в ходе которого механические руки оказались спаянными с телом ученого, после чего он превратился в жестокого преступника - Доктора Ока.
Теперь Доктор Ок хочет отомстить тем, кто создает ему проблемы, и только два существа во Вселенной могут остановить его: Человек-паук и его "альтер эго" - Питер Паркер …
Доп. информация: Это четвёртый выпуск, всего их 5!

Качество: DVD5
Формат: DVD Video
Видео: Video: PAL 4:3 (720x576) VBR
Аудио: Russian (Dolby AC3, 6 ch), English (Dolby AC3, 6 ch),
Субтитры: Russian

DVDInfo

Код:Title: SPIDERMAN_PART_04
Size: 3.63 Gb ( 3 802 816,00 KBytes ) - DVD-5
Enabled regions: 1, 2, 3, 4, 5, 6, 7, 8
VTS_01 :
Play Length: 00:00:04
Video: PAL 4:3 (720x576) VBR
VTS_02 :
Play Length: 00:00:12
Video: PAL 4:3 (720x576) VBR
Audio:
Not specified (Dolby AC3, 3 ch)
VTS_03 :
Play Length: 01:18:15
Video: PAL 4:3 (720x576) VBR
Audio:
Russian (Dolby AC3, 6 ch)
English (Dolby AC3, 6 ch)
Subtitles:
Russian
* Menus Information *
VIDEO_TS Menu
Video:
PAL 4:3 (720x576) VBR
English Language Unit :
Title Menu
VTS_01 Menu
Video:
PAL 4:3 (720x576) VBR
Audio:
Not specified (Dolby AC3, 2 ch)
English Language Unit :
Root Menu
VTS_02 Menu
Video:
PAL 4:3 (720x576) VBR
English Language Unit :
Root Menu
VTS_03 Menu
Video:
PAL 4:3 (720x576) VBR
English Language Unit :
Root Menu

MediaInfo

Код:General
Complete name : VTS_03_1.VOB
Format : MPEG-PS
File size : 1 024 MiB
Duration : 22mn 24s
Overall bit rate mode : Variable
Overall bit rate : 6 389 Kbps
Writing library : (c) 1997-2004 Womble Multimedia, Inc. / MPEG Video
Wizard (12/2003) / Mar 14 2004
Video
ID : 224 (0xE0)
Format : MPEG Video
Format version : Version 2
Format profile : Main@Main
Format settings, BVOP : Yes
Format settings, Matrix : Default
Format settings, GOP : Variable
Duration : 22mn 24s
Bit rate mode : Variable
Bit rate : 5 493 Kbps
Maximum bit rate : 8 300 Kbps
Width : 720 pixels
Height : 576 pixels
Display aspect ratio : 4:3
Frame rate : 25.000 fps
Standard : PAL
Color space : YUV
Chroma subsampling : 4:2:0
Bit depth : 8 bits
Scan type : Interlaced
Scan order : Top Field First
Compression mode : Lossy
Bits/(Pixel*Frame) : 0.530
Time code of first frame : 00:00:00:00
Time code source : Group of pictures header
Stream size : 880 MiB (86%)
Writing library : (c) 1997-2004 Womble Multimedia, Inc. / MPEG Video
Wizard (12/2003) / Mar 14 2004
Color primaries : BT.601 PAL
Transfer characteristics : BT.470 System B, BT.470 System G
Matrix coefficients : BT.601
Audio #1
ID : 189 (0xBD)-128 (0x80)
Format : AC-3
Format/Info : Audio Coding 3
Mode extension : CM (complete main)
Format settings, Endianness : Big
Muxing mode : DVD-Video
Duration : 22mn 24s
Bit rate mode : Constant
Bit rate : 384 Kbps
Channel(s) : 6 channels
Channel positions : Front: L C R, Side: L R, LFE
Sampling rate : 48.0 KHz
Bit depth : 16 bits
Compression mode : Lossy
Delay relative to video : -80ms
Stream size : 61.5 MiB (6%)
Audio #2
ID : 189 (0xBD)-129 (0x81)
Format : AC-3
Format/Info : Audio Coding 3
Mode extension : CM (complete main)
Format settings, Endianness : Big
Muxing mode : DVD-Video
Duration : 22mn 24s
Bit rate mode : Constant
Bit rate : 384 Kbps
Channel(s) : 6 channels
Channel positions : Front: L C R, Side: L R, LFE
Sampling rate : 48.0 KHz
Bit depth : 16 bits
Compression mode : Lossy
Delay relative to video : -80ms
Stream size : 61.5 MiB (6%)
Text
ID : 189 (0xBD)-32 (0x20)
Format : RLE
Format/Info : Run-length encoding
Muxing mode : DVD-Video
Menu

Скриншоты

[www.cybertorrent.ru].t636.torrent 
Торрент: Зарегистрирован [ 2018-02-15 20:34 ] · 9F3AC205413E4D96D1E1D6F16AAE2797D3F39032

Скачать .torrent

Скачать

19 KB

Статус: проверено
Скачан: 0 раз
Размер: 3,63 GB
Профиль [ЛС]
Показать сообщения:    

Текущее время: 13-Дек 15:59

Часовой пояс: UTC ± 0



Вы не можете начинать темы
Вы не можете отвечать на сообщения
Вы не можете редактировать свои сообщения
Вы не можете удалять свои сообщения
Вы не можете голосовать в опросах
Вы не можете прикреплять файлы к сообщениям
Вы можете скачивать файлы
Torrents24.ru открытый BitTorrent Torrents24.pl открытый BitTorrent CyberTorrent.ru открытый BitTorrent BtList.ru рейтинг BitTorrent трекеров Яндекс.Метрика