BitTorrent клиенты



Фантазм 4: Забвение / Phantasm IV: Oblivion (Дон Коскарелли /Don Coscarelli) [1998, США, фантастика, мистика, ужасы, DVDRip] VO

Ответить на тему
 
Автор Сообщение

Frozen ®

Пол: Не указан

Стаж: 1 год

Сообщений: 231

Создавать темы 04-Фев-2018 18:36

[Цитировать]

Фантазм 4: Забвение / Phantasm IV: Oblivion
Год выпуска: 1998
Страна: США
Жанр: Фантастика, Мистика, Ужасы
Продолжительность: 01:29:54
Перевод: Одноголосый закадровый - Тимофеев
Субтитры: нет-Режиссер: Дон Коскарелли /Don Coscarelli-В ролях: Реджи Бэннистер /Reggie Bannister/, Майкл Болдуин /Michael Baldwin/, Билл Торнбери /Bill Thornbury/, Энгус Скримм /Angus Scrimm/, Эйди Мэрнаут /Heidi Marnhout/, Боб Айви / Bob Ivy-Описание: В этой части выясняется, что Высокий Человек раньше был хирургом и сконструировал аппарат для путешествия в паралллельный мир, где ему имплантировали в голову сферу с мыслящей субстанцией, приказывающей ездить по городам и делать из людей зомби. Младший брат вследствие неудачной попытки переманить его на вражескую сторону становится могущественным экстросенсом и отправляется в параллельный мир разбираться со всякими жуткими созданиями. А старший брат с дробовиком наперевес следует за ним...-Качество: DVDRip
Формат: AVI
Видео: 512x368 (1.39:1), 23.976 fps, DivX Codec 5.1.1 ~980 kbps avg, 0.22 bit/pixel
Аудио: 44.100 kHz, MPEG Layer 3, 2 ch, ~97.30 kbps avg-

MI

Код:Format : AVI
Format/Info : Audio Video Interleave
File size : 701 MiB
Duration : 1 h 29 min
Overall bit rate mode : Variable
Overall bit rate : 1 090 kb/s
Writing application : VirtualDubMod 1.5.10.1 (build 2439/release)
Writing library : VirtualDubMod build 2439/release
Video
ID : 0
Format : MPEG-4 Visual
Format settings : BVOP1
Format settings, BVOP : 1
Format settings, QPel : No
Format settings, GMC : No warppoints
Format settings, Matrix : Default (H.263)
Muxing mode : Packed bitstream
Codec ID : DX50
Codec ID/Hint : DivX 5
Duration : 1 h 29 min
Bit rate : 980 kb/s
Nominal bit rate : 208 kb/s
Width : 512 pixels
Height : 368 pixels
Display aspect ratio : 1.391
Frame rate : 23.976 (24000/1001) FPS
Color space : YUV
Chroma subsampling : 4:2:0
Bit depth : 8 bits
Scan type : Progressive
Compression mode : Lossy
Bits/(Pixel*Frame) : 0.217
Stream size : 631 MiB (90%)
Writing library : DivX 5.1.1 (Maupiti) (UTC 2003-11-19)
Audio
ID : 1
Format : MPEG Audio
Format version : Version 1
Format profile : Layer 3
Format settings : Joint stereo / MS Stereo
Codec ID : 55
Codec ID/Hint : MP3
Duration : 1 h 29 min
Bit rate mode : Variable
Bit rate : 96.0 kb/s
Channel(s) : 2 channels
Sampling rate : 44.1 kHz
Frame rate : 38.281 FPS (1152 SPF)
Compression mode : Lossy
Stream size : 62.5 MiB (9%)
Alignment : Aligned on interleaves
Interleave, duration : 26 ms (0.63 video frame)
Interleave, preload duratio : 557 ms
Writing library : LAME3.93
Encoding settings : -m j -V 4 -q 2 -lowpass 16 --abr 96

Скриншоты

Торрент перезалит, убран флаг приватности!
[Профиль] [ЛС]
Показать сообщения:    
Ответить на тему

Текущее время: 21-Фев 23:59

Часовой пояс: UTC + 3



Вы не можете начинать темы
Вы не можете отвечать на сообщения
Вы не можете редактировать свои сообщения
Вы не можете удалять свои сообщения
Вы не можете голосовать в опросах
Вы не можете прикреплять файлы к сообщениям
Вы можете скачивать файлы