BitTorrent клиенты



Этан Мао / Ethan Mao (Квентин Ли / Quentin Lee) [2004, Канада, США, триллер, драма, гей-тема, DVDRip] AVO (Кузнецов) + Sub Spa + Original Eng

Ответить на тему
 
Автор Сообщение

Angel ®

Пол: Не указан

Стаж: 1 год

Сообщений: 1346

Создавать темы 04-Фев-2018 02:58

[Цитировать]

Этан МаоEthan Mao Страна: Канада, США
Жанр: триллер, драма, гей-тема
Год выпуска: 2004
Продолжительность: 01:28:49-Перевод: Авторский (одноголосый закадровый) Сергей Кузнецов
Субтитры: испанские
Оригинальная аудиодорожка: английский-Режиссер: Квентин Ли / Quentin Lee
В ролях: Джан Хи Ли, Рэймонд Ма, Джулия Никсон-Соул, Кевин Клейнберг, Джерри Эрнандес, Дэвид Трэн, Мэри Гилберт-Описание:
Итан Мао — молодой гей, которого выгнали из дома после того, как мачеха застала его за чтением порнографического журнала и рассказала об этом его отцу. На улице парень вынужден заниматься гомосексуальной проституцией, чтобы заработать хоть какие-то деньги на жизнь. Здесь он знакомится с хастлером и торговцем наркотиками по имени Ремийо. Парни становятся хорошими друзьями. Ремийо приглашает Итана пожить у него. Вскоре молодые люди понимают, что влюблены друг в друга.
Итан намерен в отсутствие родителей наведаться домой, чтобы забрать деньги, которые отец не заплатил ему за работу, а также некоторые вещи, оставшиеся от покойной матери. Вместе с Ремийо они проникают в дом. Но внезапно семья возвращается и застаёт парней врасплох. Супруги вынуждены провести ночь в заложниках у Итана и Ремийо.-Сэмпл-Качество видео: DVDRip
Формат видео: AVI
Видео: 576x304 (1.89:1), 23.976 fps, XviD build 46 ~876 kbps avg, 0.21 bit/pixel
Аудио: 48 kHz, MPEG Layer 3, 2 ch, ~128.00 kbps avg
Аудио 2: 48 kHz, MPEG Layer 3, 2 ch, ~128.00 kbps avg
Формат субтитров: hardsub (неотключаемые)

MediaInfo

General
Complete name : G:\Ethan.Mao.avi
Format : AVI
Format/Info : Audio Video Interleave
File size : 729 MiB
Duration : 1h 28mn
Overall bit rate : 1 147 Kbps
Writing application : VirtualDubMod 1.5.10.2 (build 2540/release)
Writing library : VirtualDubMod build 2540/release
Video
ID : 0
Format : MPEG-4 Visual
Format profile : Advanced Simple@L5
Format settings, BVOP : 2
Format settings, QPel : No
Format settings, GMC : No warppoints
Format settings, Matrix : Default (H.263)
Codec ID : XVID
Codec ID/Hint : XviD
Duration : 1h 28mn
Bit rate : 877 Kbps
Width : 576 pixels
Height : 304 pixels
Display aspect ratio : 1.895
Frame rate : 23.976 fps
Color space : YUV
Chroma subsampling : 4:2:0
Bit depth : 8 bits
Scan type : Progressive
Compression mode : Lossy
Bits/(Pixel*Frame) : 0.209
Stream size : 557 MiB (76%)
Writing library : XviD 1.1.2 (UTC 2006-11-01)
Audio #1
ID : 1
Format : MPEG Audio
Format version : Version 1
Format profile : Layer 3
Mode : Joint stereo
Mode extension : MS Stereo
Codec ID : 55
Codec ID/Hint : MP3
Duration : 1h 28mn
Bit rate mode : Constant
Bit rate : 128 Kbps
Channel(s) : 2 channels
Sampling rate : 48.0 KHz
Compression mode : Lossy
Stream size : 81.3 MiB (11%)
Alignment : Aligned on interleaves
Interleave, duration : 42 ms (1.00 video frame)
Interleave, preload duration : 504 ms
Audio #2
ID : 2
Format : MPEG Audio
Format version : Version 1
Format profile : Layer 3
Mode : Joint stereo
Mode extension : MS Stereo
Codec ID : 55
Codec ID/Hint : MP3
Duration : 1h 28mn
Bit rate mode : Constant
Bit rate : 128 Kbps
Channel(s) : 2 channels
Sampling rate : 48.0 KHz
Compression mode : Lossy
Stream size : 81.3 MiB (11%)
Alignment : Aligned on interleaves
Interleave, duration : 42 ms (1.00 video frame)
Interleave, preload duration : 504 ms
Writing library : LAME3.98

Скриншот c названием фильма

Скриншоты

[Профиль] [ЛС]
Показать сообщения:    
Ответить на тему

Текущее время: 19-Фев 16:23

Часовой пояс: UTC + 3



Вы не можете начинать темы
Вы не можете отвечать на сообщения
Вы не можете редактировать свои сообщения
Вы не можете удалять свои сообщения
Вы не можете голосовать в опросах
Вы не можете прикреплять файлы к сообщениям
Вы можете скачивать файлы