BitTorrent клиенты



Двойной форсаж / 2 Fast 2 Furious (Джон Синглтон / John Singleton) [2003, США, Германия, боевик, триллер, криминал, WEB-DLRip-AVC] [Open Matte] Dub + MVO + DVO + AVO (Визгунов) + Sub Rus Eng + Original Eng

Ответить на тему
 
Автор Сообщение

Angel ®

Пол: Не указан

Стаж: 1 год

Сообщений: 1346

Создавать темы 04-Фев-2018 02:59

[Цитировать]

Двойной форсаж / 2 Fast 2 Furious / Open Matte
-Часть 1 | Часть 2 | Часть 4 | Часть 5 | Часть 8-Страна: США, Германия
Жанр: боевик, триллер, криминал
Год выпуска: 2003
Продолжительность: 01:47:33
Перевод: Профессиональный (дублированный)
Перевод 2: Профессиональный (многоголосый закадровый)
Перевод 3: Профессиональный (двухголосый закадровый)
Перевод 4: Авторский (одноголосый закадровый) С.Визгунов
Субтитры: русские, английские
Оригинальная аудиодорожка: английский
Режиссер: Джон Синглтон / John Singleton
В ролях: Пол Уокер, Тайриз Гибсон, Ева Мендес, Коул Хаузер, Лудакрис, Том Бэрри, Джеймс Римар, Девон Аоки, Амори Ноласко, Майкл Или
Описание: Бывший полицейский Брайан О`Коннер вместе с напарником Романом Пиарсом собираются перевезти крупную сумму «грязных» денег известного мафиози Картера Верона в качестве его подручных. Но на самом деле эта работа является только прикрытием для Брайана, который вместе с тайным агентом Моникой Клемент должны уличить изворотливого преступника…
Доп. информация: Сравнение с HDDVDRip -> http://screenshotcomparison.com/comparison/129282
Фильмы в Fullscreen (4:3) и Open Matte (16:9) форматах
Сэмпл: https://yadi.sk/i/-MUiTkT53RYpXH
Качество видео: WEB-DLRip-AVC
Формат видео: MKV
Видео: MPEG-4 AVC/H.264 / 2140 kbps / 1024x576 / 23.976 fps
Аудио: DUB (Rus) / AC3 / 6 ch / 384 kbps / 48 kHz
Аудио 2: Original (Eng) / AC3 / 6 ch / 384 kbps / 48 kHz
Аудио 3: MVO (Rus) / AC3 / 6 ch / 448 kbps / 48 kHz - отдельно
Аудио 4: DVO (Rus) / AC3 / 6 ch / 448 kbps / 48 kHz - отдельно
Аудио 5: AVO Визгунов (Rus) / AC3 / 6 ch / 448 kbps / 48 kHz - отдельно
Формат субтитров: softsub (SRT)
Доп. информация о субтитрах: Русские (forced, 2x full), Английские (full)
#Сохранены оригинальные чаптеры как на Blu-ray

Log

x264 [info]: frame I:1651 Avg QP:19.47 size: 79405
x264 [info]: frame P:42727 Avg QP:23.06 size: 20694
x264 [info]: frame B:110361 Avg QP:25.92 size: 6435

MediaInfo

General
Unique ID : 184705215804660489738401838006444023845 (0x8AF4EE3BD1BE3B7DB8A42C19F140E025)
Complete name : J:\Torrents\Готовые релизы\Двойной форсаж (2003) WEB-DLRip-AVC [Open Matte]\Двойной форсаж (2003) WEB-DLRip-AVC [Open Matte].mkv
Format : Matroska
Format version : Version 2
File size : 2.19 GiB
Duration : 1 h 47 min
Overall bit rate : 2 909 kb/s
Movie name : Двойной форсаж / 2 Fast 2 Furious (2003) [Open Matte]
Encoded date : UTC 2018-01-16 18:14:33
Writing application : mkvmerge v5.5.0 ('Healer') built on Apr 24 2012 23:47:03
Writing library : libebml v1.2.3 + libmatroska v1.3.0
Cover : Yes
Attachments : cover.jpg
Video
ID : 1
Format : AVC
Format/Info : Advanced Video Codec
Format profile : High@L3.1
Format settings : CABAC / 8 Ref Frames
Format settings, CABAC : Yes
Format settings, ReFrames : 8 frames
Codec ID : V_MPEG4/ISO/AVC
Duration : 1 h 47 min
Bit rate : 2 140 kb/s
Width : 1 024 pixels
Height : 576 pixels
Display aspect ratio : 16:9
Frame rate mode : Constant
Frame rate : 23.976 (24000/1001) FPS
Color space : YUV
Chroma subsampling : 4:2:0
Bit depth : 8 bits
Scan type : Progressive
Bits/(Pixel*Frame) : 0.151
Stream size : 1.57 GiB (72%)
Title : WEB-DLRip (AVC) / MPEG-4 AVC/H.264 / 2140 kbps / 1024x576 / 23.976 fps
Writing library : x264 core 146 r2538 121396c
Encoding settings : cabac=1 / ref=8 / deblock=1:0:0 / analyse=0x3:0x113 / me=umh / subme=10 / psy=1 / psy_rd=1.00:0.00 / mixed_ref=1 / me_range=32 / chroma_me=1 / trellis=2 / 8x8dct=1 / cqm=0 / deadzone=21,11 / fast_pskip=0 / chroma_qp_offset=-2 / threads=6 / lookahead_threads=1 / sliced_threads=0 / nr=0 / decimate=1 / interlaced=0 / bluray_compat=0 / constrained_intra=0 / bframes=9 / b_pyramid=2 / b_adapt=2 / b_bias=0 / direct=3 / weightb=1 / open_gop=0 / weightp=2 / keyint=250 / keyint_min=23 / scenecut=40 / intra_refresh=0 / rc_lookahead=50 / rc=2pass / mbtree=1 / bitrate=2140 / ratetol=1.0 / qcomp=0.60 / qpmin=0 / qpmax=69 / qpstep=4 / cplxblur=20.0 / qblur=0.5 / vbv_maxrate=14000 / vbv_bufsize=14000 / nal_hrd=none / filler=0 / ip_ratio=1.40 / aq=1:1.00
Language : English
Default : Yes
Forced : Yes
Audio #1
ID : 2
Format : AC-3
Format/Info : Audio Coding 3
Codec ID : A_AC3
Duration : 1 h 47 min
Bit rate mode : Constant
Bit rate : 384 kb/s
Channel(s) : 6 channels
Channel positions : Front: L C R, Side: L R, LFE
Sampling rate : 48.0 kHz
Frame rate : 31.250 FPS (1536 SPF)
Bit depth : 16 bits
Compression mode : Lossy
Stream size : 296 MiB (13%)
Title : DUB (Rus) / AC3 / 6 ch / 448 kbps / 48 kHz
Language : Russian
Service kind : Complete Main
Default : Yes
Forced : Yes
Audio #2
ID : 3
Format : AC-3
Format/Info : Audio Coding 3
Codec ID : A_AC3
Duration : 1 h 47 min
Bit rate mode : Constant
Bit rate : 384 kb/s
Channel(s) : 6 channels
Channel positions : Front: L C R, Side: L R, LFE
Sampling rate : 48.0 kHz
Frame rate : 31.250 FPS (1536 SPF)
Bit depth : 16 bits
Compression mode : Lossy
Stream size : 296 MiB (13%)
Title : Original (Eng) / AC3 / 6 ch / 384 kbps / 48 kHz
Language : English
Service kind : Complete Main
Default : No
Forced : No
Text #1
ID : 4
Format : UTF-8
Codec ID : S_TEXT/UTF8
Codec ID/Info : UTF-8 Plain Text
Title : Forced (Rus) / S_TEXT/UTF8
Language : Russian
Default : Yes
Forced : Yes
Text #2
ID : 5
Format : UTF-8
Codec ID : S_TEXT/UTF8
Codec ID/Info : UTF-8 Plain Text
Title : Full [#1] (Rus) / S_TEXT/UTF8
Language : Russian
Default : No
Forced : No
Text #3
ID : 6
Format : UTF-8
Codec ID : S_TEXT/UTF8
Codec ID/Info : UTF-8 Plain Text
Title : Full [#2] (Rus) / S_TEXT/UTF8
Language : Russian
Default : No
Forced : No
Text #4
ID : 7
Format : UTF-8
Codec ID : S_TEXT/UTF8
Codec ID/Info : UTF-8 Plain Text
Title : Full (Eng) / S_TEXT/UTF8
Language : English
Default : No
Forced : No
Menu
00:00:00.000 : en:The Audition
00:11:29.689 : en:Verone's New Drivers
00:14:20.818 : en:The Man for the Job
00:16:02.628 : en:In the Interest of Justice
00:18:57.344 : en:Busted
00:24:23.545 : en:Surprise!
00:28:16.820 : en:Time for Ignition
00:35:14.153 : en:Hungry
00:40:08.322 : en:The Best of Everything
00:46:44.384 : en:Two More Cars
00:58:55.114 : en:A Little Fun
01:05:03.190 : en:Looking for Monica
01:10:25.304 : en:The Wrong Two Guys
01:13:38.038 : en:Guns, Murderers & Cops
01:22:15.639 : en:Let the Party Begin
01:29:54.138 : en:The New Plan
01:35:17.628 : en:Doing It Big
01:37:32.972 : en:Clean Records
01:40:33.027 : en:End Titles

Cравнения изданий

Scope (2.35:1) >>>>>>>>>>>>>>>>>>>>>>>>>>>>>>> Open Matte (16:9) >>>>>>>>>>>>>>>>>>>>>>>>>>>>>>> FullScreen (4:3)



Скриншот c названием фильма

Скриншоты

Цитата:
  • Исходник предоставлен пользователем spartanec163
  • Звуковые дорожки №1, №2 и субтитры взяты из раздачи пользователя AngelOfTrue
  • Звуковая дорожка №3 взята из раздачи Fast.&.Furious.Collection.720p.BluRay.Rus.Ukr.Eng.HDCLUB
  • Звуковая дорожка №5 взята из раздачи пользователя Glowamy
[Профиль] [ЛС]
Показать сообщения:    
Ответить на тему

Текущее время: 19-Фев 16:22

Часовой пояс: UTC + 3



Вы не можете начинать темы
Вы не можете отвечать на сообщения
Вы не можете редактировать свои сообщения
Вы не можете удалять свои сообщения
Вы не можете голосовать в опросах
Вы не можете прикреплять файлы к сообщениям
Вы можете скачивать файлы