BitTorrent клиенты



Фанфан-тюльпан / Fanfan la Tulipe (Жерар Кравчик / Gérard Krawczyk) [2003, Франция, мелодрама, комедия, приключения, DVDRip] MVO (Ren-TV) + Original Fre

Ответить на тему
 
Автор Сообщение

Angel ®

Пол: Не указан

Стаж: 1 год

Сообщений: 1346

Создавать темы 04-Фев-2018 02:59

[Цитировать]

Фанфан-тюльпан
Fanfan la Tulipe
Страна: Франция
Жанр: мелодрама, комедия, приключения
Продолжительность: 01:34:31
Год выпуска: 2003
Перевод: Профессиональный (многоголосый закадровый) - Ren-TV
Субтитры: отсутствуют-Режиссёр: Жерар Кравчик: Gérard Krawczyk
В ролях: Венсан Перес, Пенелопа Крус, Дидье Бурдон, Элен де Фужроль, Мишель Мюллер, Филипп Дормуа, Жак Франц, Жеральд Ларош, Гийом Гальенн, Жиль Арбона.-О фильме: В прекрасной стране Франции в середине XVIII-го века жизнь была счастливой, женщины доступными, а мужчины занимались своим любимым делом, то есть войной. Развлечение для королей, в котором участвовал также и народ.
Дабы избежать женитьбы, молодой авантюрист и волокита Фанфан записывается в армию Людовика XV-го. Агитируя Фанфана в рекруты, Аделина, дочь сержанта, занимающегося набором солдат в армию, предсказывает юноше, что его ждёт продвижение по службе и что его даже полюбит дочь короля.
По дороге к лагерю Аквитанского полка Фанфан вступает в схватку с бандой грабителей, напавших на карету. Как выясняется позже, в карете находились мадам де Помпадур и Генриетта, дочь короля. Фанфан понимает, что предсказание Аделины уже начинает сбываться.
Абсурдность военной стратегии, храбрость Фанфана и масса других приключений несколько усложняют путь героя к осуществлению предсказанного. С риском для собственной жизни Фанфану удается раскрыть коварный заговор. Это принесет ему славу, нежданную любовь и уверенность в том, что человек может стать творцом своей судьбы.
-Данный перевод появляется в сети впервые.
Роли озвучивали: Ирина Савина, Андрей Симанов, Игорь Тарадайкин, Александр Котов.-Перевод записан с регионального телеканала "Новое телевидение" (Караганда). Качество звука весьма посредственное.

Семпл: http://sendfile.su/1390644
Видеоряд взят из этой раздачи.-В русской аудиодорожке есть небольшая вставка дублированного перевода - во фрагменте 00:25:02 - 00:25:30.-Качество: DVDRip
Формат: AVI
Видео: XviD, 720x304 (2,35:1), 25 fps, ~1630 kbps, 0.298 bit/pixel
Аудио #1: [RUS] 48 kHz, AC3, 1 ch, 128 kbps
Аудио #2: [FRE] 48 kHz, AC3, 5.1 ch, 448 kbps

Mediainfo

Общее
Полное имя : F:\Fanfan.tulpan.2003.DVDRip.MVO.Ren-TV.avi
Формат : AVI
Формат/Информация : Audio Video Interleave
Размер файла : 1,30 Гбайт
Продолжительность : 1 ч. 34 м.
Общий поток : 1965 Кбит/сек
Название фильма : Fanfan la tulipe 2003
Режиссёр : Petey [rutorrent.org]
Жанр : Comedy
Программа кодирования : VirtualDubMod 1.5.10.2 (build 2540/release)
Библиотека кодирования : VirtualDubMod build 2540/release
Формат оригинала/Имя : Movie
Видео
Идентификатор : 0
Формат : MPEG-4 Visual
Профиль формата : Advanced Simple@L5
Параметр BVOP формата : 1
Параметр QPel формата : Нет
Параметр GMC формата : Без точки перехода
Параметр матрицы формата : Выборочная
Идентификатор кодека : XVID
Идентификатор кодека/Подсказка : XviD
Продолжительность : 1 ч. 34 м.
Битрейт : 1630 Кбит/сек
Ширина : 720 пикселей
Высота : 304 пикселя
Соотношение сторон : 2,35:1
Частота кадров : 25,000 кадров/сек
Цветовое пространство : YUV
Субдискретизация насыщенности : 4:2:0
Битовая глубина : 8 бит
Тип развёртки : Прогрессивная
Метод сжатия : С потерями
Бит/(Пиксели*Кадры) : 0.298
Размер потока : 1,08 Гбайт (83%)
Библиотека кодирования : XviD 1.2.1 (UTC 2008-12-04)
Аудио #1
Идентификатор : 1
Формат : AC-3
Формат/Информация : Audio Coding 3
Параметр Endianness формата : Big
Идентификатор кодека : 2000
Продолжительность : 1 ч. 34 м.
Вид битрейта : Постоянный
Битрейт : 128 Кбит/сек
Каналы : 1 канал
Расположение каналов : Front: C
Частота : 48,0 КГц
Частота кадров : 31,250 кадров/сек (1536 SPF)
Битовая глубина : 16 бит
Метод сжатия : С потерями
Размер потока : 86,5 Мбайт (7%)
Выравнивание : Разделение по промежуткам
Продолжительность промежутка : 40 мс. (1,00 видеокадр)
Время предзагрузки промежутка : 500 мс.
ServiceKind/String : Complete Main
Аудио #2
Идентификатор : 2
Формат : AC-3
Формат/Информация : Audio Coding 3
Параметр Endianness формата : Big
Идентификатор кодека : 2000
Продолжительность : 1 ч. 34 м.
Вид битрейта : Постоянный
Битрейт : 448 Кбит/сек
Каналы : 6 каналов
Расположение каналов : Front: L R
Частота : 48,0 КГц
Частота кадров : 31,250 кадров/сек (1536 SPF)
Битовая глубина : 16 бит
Метод сжатия : С потерями
Размер потока : 303 Мбайт (20%)
Выравнивание : Разделение по промежуткам
Продолжительность промежутка : 40 мс. (1,00 видеокадр)
Время предзагрузки промежутка : 500 мс.
ServiceKind/String : Complete Main

Скриншоты

[Профиль] [ЛС]
Показать сообщения:    
Ответить на тему

Текущее время: 19-Фев 16:22

Часовой пояс: UTC + 3



Вы не можете начинать темы
Вы не можете отвечать на сообщения
Вы не можете редактировать свои сообщения
Вы не можете удалять свои сообщения
Вы не можете голосовать в опросах
Вы не можете прикреплять файлы к сообщениям
Вы можете скачивать файлы