ВИП: Мой брат супермен / Vip, mio fratello superuomo / VIP: My Brother Superman (Бруно Боццетто / Bruno Bozzetto) [1968, Италия, мультфильм, комедия, DVDRip] Rus Sub + Original Ita

Ответить на тему
Статистика раздачи
Размер:  1,46 GB   |    Зарегистрирован:  11 часов   |    Скачан:  0 раз

Полного источника не было: Никогда

 
   
 
 
Автор Сообщение

karlll ®

Пол: Не указан

Стаж: 6 дней

Сообщений: 47

Создавать темы Вчера, в 13:05

[Цитировать]

ВИП: Мой брат супермен / Vip, mio fratello superuomo / VIP: My Brother Superman
Страна: Италия
Жанр: мультфильм, комедия
Продолжительность: 01:18:53
Год выпуска: 1968
Перевод: Субтитры (Финекапа)
Русские субтитры: есть
Режиссёр: Бруно Боццетто / Bruno Bozzetto
Роли озвучивали: Роберто Бертеа, Фиорелла Бетти, Витторио Крамер, Карло Д’Анджело, Лучиано Де Амбросис, Артуро Доминичи, Микаэла Эсдра, Коррадо Гайпа, Оресте Лионнелло, Пино Локки
Описание: ВИП - это семейство суперменов, которые с незапамятных времен защищают мир от несправедливости. В каждом поколении ВИП влюблялся и женился на женщине, находящейся в опасности, но последний из ВИПов совершил ошибку и женился не на той. В семье родились два сына. Один обладает всеми супергеройскими способностями, а второму не повезло. Что же человеку нужно для счастья на самом деле? Слава, деньги, власть, свобода, работа, наука, любовь? Как осознать себя и свое место в жизни? За ответами на эти вечные вопросы многие люди предпочитают отправиться в дорогу. Тем же путём начинается и эта приключенческая история, которую в теории принято называть «путешествием Героя». А каким оно окажется на практике - посмотрим.
Доп. информация:
Огромное спасибо xfiles за консультации.
Рип найден в сети, перевод сделан с итальянских субтитров.
Релиз посвящается 51-й годовщине со дня выхода фильма на экраны
и 81-му дню рождения (3 марта 1938 года) режиссера Бруно Боццетто.


Качество: DVDRip
Формат: AVI
Видео: XVID, 512x384, 25.000 FPS, 2190 kb/s
Аудио: Dolby AC-3, 48.0 kHz, 6 channels, 448 kb/s
Субтитры: Русские

Подробные технические данные

General
Complete name : ...\Vip_Mio_Fratello_Superuomo_1968\Vip_Mio_Fratello_Superuomo.avi
Format : AVI
Format/Info : Audio Video Interleave
File size : 1.46 GiB
Duration : 1 h 18 min
Overall bit rate : 2 645 kb/s
Writing application : VirtualDubMod 1.5.4.1 (build 2178/release)
Writing library : VirtualDubMod build 2178/release
Video
ID : 0
Format : MPEG-4 Visual
Format profile : Advanced Simple@L5
Format settings : BVOP1 / Custom Matrix
Format settings, BVOP : 1
Format settings, QPel : No
Format settings, GMC : No warppoints
Format settings, Matrix : Custom
Codec ID : XVID
Codec ID/Hint : XviD
Duration : 1 h 18 min
Bit rate : 2 190 kb/s
Width : 512 pixels
Height : 384 pixels
Display aspect ratio : 4:3
Frame rate : 25.000 FPS
Color space : YUV
Chroma subsampling : 4:2:0
Bit depth : 8 bits
Scan type : Progressive
Compression mode : Lossy
Bits/(Pixel*Frame) : 0.446
Stream size : 1.21 GiB (83%)
Writing library : XviD 64
Audio
ID : 1
Format : AC-3
Format/Info : Audio Coding 3
Commercial name : Dolby Digital
Codec ID : 2000
Duration : 1 h 18 min
Bit rate mode : Constant
Bit rate : 448 kb/s
Channel(s) : 6 channels
Channel layout : L R C LFE Ls Rs
Sampling rate : 48.0 kHz
Frame rate : 31.250 FPS (1536 SPF)
Bit depth : 16 bits
Compression mode : Lossy
Stream size : 253 MiB (17%)
Alignment : Split accross interleaves
Interleave, duration : 96 ms (2.40 video frames)
Interleave, preload duration : 96 ms
Language : Italiano
Service kind : Complete Main

Скриншоты



Пример субтитров

1
00:00:02,080 --> 00:00:04,230
Среди всего множества
видов суперменов,
2
00:00:04,400 --> 00:00:07,631
самыми славными и мощными
были, конечно, те из ВИПов,
3
00:00:07,800 --> 00:00:10,679
происхождение которых
теряется в глубине веков.
4
00:00:11,120 --> 00:00:13,139
Их благородная
цель состояла в том,
5
00:00:13,140 --> 00:00:17,439
чтобы защищать
слабых от угнетателей.
6
00:00:33,240 --> 00:00:35,595
Первый ВИП,
появившийся на Земле,
7
00:00:35,760 --> 00:00:39,719
заложил традицию, в соответствии
с которой его потомки
8
00:00:39,840 --> 00:00:42,309
должны были быть
героями, непобедимыми
9
00:00:42,310 --> 00:00:44,810
и …завидными женихами.
10
00:01:46,280 --> 00:01:49,113
Эта история ВИПов
длилась на протяжении веков,
11
00:01:49,280 --> 00:01:52,238
но однажды
случилось непредвиденное.
12
00:01:52,640 --> 00:01:54,376
Усач-ВИП, последний из ВИПов,
13
00:01:54,400 --> 00:01:56,400
двусмысленно воспринимавший
слово "супер",
14
00:01:57,480 --> 00:01:59,489
вместо суперженщины женился
15
00:01:59,490 --> 00:02:01,589
на грациозной продавщице
из супермаркета.
16
00:02:02,560 --> 00:02:05,518
От этого нового брака
впервые в нашей истории
17
00:02:05,640 --> 00:02:08,996
одновременно родились
два новых супермена:
18
00:02:09,240 --> 00:02:11,240
Супер-ВИП
19
00:02:15,760 --> 00:02:17,496
и Мини-ВИП.
20
00:02:17,520 --> 00:02:20,751
Но два брата очень
отличались друг от друга.

Еще постеры


Если ваш рейтинг упадет ниже 0,3, вы не сможете скачивать торренты! Подробнее о рейтинге.

[www.cybertorrent.ru].t554.torrent 
Торрент: Зарегистрирован [ Вчера, в 13:08 ] · 15F81CC41E70DDCFDFF4999A86286362703125A8

Скачать .torrent

Скачать

59 KB

Статус: проверено
Скачан: 0 раз
Размер: 1,46 GB
terms.php
[Профиль] [ЛС]
Показать сообщения:    
Ответить на тему

Текущее время: 19-Мар 00:21

Часовой пояс: UTC ± 0



Вы не можете начинать темы
Вы не можете отвечать на сообщения
Вы не можете редактировать свои сообщения
Вы не можете удалять свои сообщения
Вы не можете голосовать в опросах
Вы не можете прикреплять файлы к сообщениям
Вы можете скачивать файлы

Боковая панель 2

Для добавления контента в данную боковую панель, отредактируйте указанные файлы:

  • library/language/*/html/sidebar2.html
  • style/templates/default/page_footer.tpl

Для отключения данной боковой панели, установите значение переменной $page_cfg['show_sidebar2'] в файле config.php в положение false.

Партнеры

Выражаем благодарность всем людям, внесшим материальную помощь в развитие TorrentPier II, указанным в файле contributors.txt.