BitTorrent клиенты



Хроники Нарнии: Лев, колдунья и волшебный шкаф / The Chronicles of Narnia: The Lion, the Witch and the Wardrobe (Эндрю Адамсон / Andrew Adamson) [2005, США, Великобритания, фэнтези, приключения, семейный, WEB-DLRip] [Open Matte] Dub

Ответить на тему
 
Автор Сообщение

Angel ®

Пол: Не указан

Стаж: 1 год

Сообщений: 1346

Создавать темы 04-Фев-2018 02:59

[Цитировать]

Хроники Нарнии: Лев, колдунья и волшебный шкаф
The Chronicles of Narnia: The Lion, the Witch and the Wardrobe
- Год выпуска: 2005
Страна: США, Великобритания / Walt Disney Pictures
Жанр: фэнтези, приключения, семейный
Продолжительность: 02:23:07
Перевод: Профессиональный (дублированный) Невафильм
Субтитры: нет-Режиссер: Эндрю Адамсон / Andrew Adamson-В ролях: Джорджи Хенли, Скандар Кейнс, Уильям Моусли, Анна Попплуэлл, Тильда Суинтон, Джеймс МакЭвой, Джим Броудбент, Киран Шах, Джеймс Космо, Джуди МакИнтош.-Описание: Оказывается, в мире есть волшебная страна под названием Нарния. В этом сказочном мире властвует магия и живут разные фантастические существа - кентавры и фавны, дриады и нимфы. И хранит эту страну от зла благородный бог-лев Аслан. Но однажды злобная ведьма по имени Джэдис захватывает власть в Нарнии и заковывает страну в вечный холод. Вот эту самую дверь в волшебную страну Нарнию и открывают четверо ребятишек - Питер, Сьюзан, Эдмунд и Люси, которых привозят из Лондона в деревенский дом одного профессора. Теперь дети должны будут объединиться с Великим Львом Асланом, разрушить заклинания злой колдуньи и освободить жителей Нарнии от ее власти.-Рейтинг
kinopoisk.ru 7.300 (109 128)
imdb.com 6.90 (312 188)
-Качество видео: WEB-DLRip (исходник: WEB-DL / 1080p)
Формат видео: AVI | Sample
Видео: 720x400 (1.80:1), 23.976 fps, XviD build 73 ~1724 kbps avg, 0.25 bit/pixel
Аудио: 48 kHz, AC3 Dolby Digital, 3/2 (L,C,R,l,r) + LFE ch, ~448.00 kbps avg | RUS

Инфо

Формат : AVI
Формат/Информация : Audio Video Interleave
Профиль формата : OpenDML
Размер файла : 2,18 Гбайт
Продолжительность : 2 ч. 23 м.
Общий поток : 2183 Кбит/сек
Название фильма : Хроники Нарнии: Лев, Колдунья и волшебный шкаф / The Chronicles of Narnia: The Lion, the Witch and the Wardrobe (2005) Open Matte
Программа кодирования : VirtualDubMod 1.5.10.2 (build 2540/release)
Библиотека кодирования : VirtualDubMod build 2540/release
Примечание : WEB-DLRip by Seven
Видео
Идентификатор : 0
Формат : MPEG-4 Visual
Профиль формата : Advanced Simple@L5
Настройки формата : BVOP1 / Custom Matrix
Параметр BVOP формата : 1
Параметр QPel формата : Нет
Параметр GMC формата : Без точки перехода
Параметр матрицы формата : Выборочная
Идентификатор кодека : XVID
Идентификатор кодека/Подсказка : XviD
Продолжительность : 2 ч. 23 м.
Битрейт : 1724 Кбит/сек
Ширина : 720 пикселей
Высота : 400 пикселей
Соотношение сторон : 16:9
Частота кадров : 23,976 (24000/1001) кадра/сек
Цветовое пространство : YUV
Субдискретизация насыщенности : 4:2:0
Битовая глубина : 8 бит
Тип развёртки : Прогрессивная
Метод сжатия : С потерями
Бит/(Пиксели*Кадры) : 0.250
Размер потока : 1,72 Гбайт (79%)
Библиотека кодирования : XviD 73
Аудио
Идентификатор : 1
Формат : AC-3
Формат/Информация : Audio Coding 3
Параметр Endianness формата : Big
Идентификатор кодека : 2000
Продолжительность : 2 ч. 22 м.
Вид битрейта : Постоянный
Битрейт : 448 Кбит/сек
Каналы : 6 каналов
Расположение каналов : Front: L C R, Side: L R, LFE
Частота : 48,0 КГц
Частота кадров : 31,250 кадров/сек (1536 SPF)
Битовая глубина : 16 бит
Метод сжатия : С потерями
Размер потока : 458 Мбайт (21%)
Выравнивание : Разделение по промежуткам
Продолжительность промежутка : 42 мс. (1,00 видеокадр)
Время предзагрузки промежутка : 500 мс.
ServiceKind/String : Complete Main

Сравнение

Blu-ray vs WEB-DL

Скриншоты

[Профиль] [ЛС]
Показать сообщения:    
Ответить на тему

Текущее время: 23-Фев 00:01

Часовой пояс: UTC + 3



Вы не можете начинать темы
Вы не можете отвечать на сообщения
Вы не можете редактировать свои сообщения
Вы не можете удалять свои сообщения
Вы не можете голосовать в опросах
Вы не можете прикреплять файлы к сообщениям
Вы можете скачивать файлы