Статистика раздачи
Размер:  6,72 GB   |    Зарегистрирован:  4 месяца 3 дня   |    Скачан:  0 раз

Полного источника не было: Никогда

 
   
 
 

Zljuka ®

Пол:
Не указан
Стаж:
4 месяца 3 дня
Сообщений:
56

Ледниковый период / Ice Age
Страна: США
Жанр: мультфильм, комедия, приключения, семейный
Год выпуска: 2002
Продолжительность: 01:17:55
Перевод: Профессиональный (дублированный)
Субтитры: болгарские, английские, эстонские, латышские, литовские, румынские, русские, болгарские (комментарий), русские (комментарий), болгарские (форс.), эстонские (форс.), русские (форс.)
Оригинальная аудиодорожка: английская
Режиссер: Крис Уэдж, Карлос Салдана / Chris Wedge, Carlos Saldanha
Роли озвучивали: Рэй Романо, Джон Легуизамо, Дэнис Лири, Горан Вишнич, Джек Блэк, Седрик «Развлекатель», Стивен Рут, Дидрих Бадер, Алан Тьюдик, Лорри Бэгли
Роли дублировали: Степан Старчиков, Антон Комолов, Александр Груздев, Владимир Радченко, Николай Денисов, Николай Маликов, Григорий Маликов, Юрий Деркач, Ольга Шелест, Оксана Сташенко
Описание: Веселые и опасные приключения героев. 20 тыс. лет назад. Чтобы избежать приближающегося из-за наступления ледникового периода холода, животные мигрируют на юг. Однако некоторые из них все-таки решают остаться — одинокий, угрюмый мамонт Манфред, а также бесшабашный ленивец Сид.
Случайно эта парочка наталкивается на человеческого детеныша. Они решаются вернуть его людям и отправляются в путешествие. По пути они встречают саблезубого хитрого тигра. И теперь этой веселой компании предстоят забавные приключения!
Дополнительные материалы: Комментарий директора Криса Уэджа и содиректора Карлоса Салдана, Еще одно приключение Скрэта, Сид, Пошаговая анимация, Подо льдом, Удаленные эпизоды, Откровения Скрэта, Международная версия Ледникового периода, Трейлеры
Качество: DVD9
Формат: DVD-video
Видео: PAL 16:9 (720x576(0.466) MPEG Video, 25,000 кадр/сек, 4828 Кбит/сек
Аудио: Bulgarian (Dolby AC-3, 6ch) 384 Кбит/сек, 48.0 КГц
Аудио 2: English (Dolby AC-3, 6ch) 448 Кбит/сек, 48.0 КГц
Аудио 3: Estonian (Dolby AC-3, 6ch) 384 Кбит/сек, 48.0 КГц
Аудио 4: Russian (Dolby AC-3, 6ch) 384 Кбит/сек, 48.0 КГц
Аудио 5: English (Dolby AC-3, 2ch) 96 Кбит/сек, 48.0 КГц

MediaInfo

Общее
Полное имя : Ledn_period\VIDEO_TS\VTS_02_1.VOB
Формат : MPEG-PS
Размер файла : 1024 Мбайт
Продолжительность : 21 м. 30 с.
Режим общего битрейта : Переменный
Общий поток : 6657 Кбит/сек
Видео
Идентификатор : 224 (0xE0)
Формат : MPEG Video
Версия формата : Version 2
Профиль формата : Main@Main
Параметр BVOP формата : Да
Параметр матрицы формата : Выборочная
Параметр GOP формата : M=3, N=15
Продолжительность : 21 м. 30 с.
Вид битрейта : Переменный
Битрейт : 4828 Кбит/сек
Ширина : 720 пикселей
Высота : 576 пикселей
Соотношение сторон : 16:9
Частота кадров : 25,000 кадров/сек
Стандарт вещания : PAL
Цветовое пространство : YUV
Субдискретизация насыщенности : 4:2:0
Битовая глубина : 8 бит
Тип развёртки : Прогрессивная
Порядок развёртки : Верхнее поле первое
Метод сжатия : С потерями
Бит/(Пиксели*Кадры) : 0.466
Временной код первого кадра : 01:00:00:00
Оригинал временного кода : Group of pictures header
Размер потока : 743 Мбайт (73%)
Аудио #1
Идентификатор : 189 (0xBD)-129 (0x81)
Формат : AC-3
Формат/Информация : Audio Coding 3
Параметр Endianness формата : Big
Режим смешивания : DVD-Video
Продолжительность : 21 м. 30 с.
Вид битрейта : Постоянный
Битрейт : 448 Кбит/сек
Каналы : 6 каналов
Расположение каналов : Front: L C R, Side: L R, LFE
Частота : 48,0 КГц
Частота кадров : 31,250 кадров/сек (1536 spf)
Битовая глубина : 16 бит
Метод сжатия : С потерями
Задержка видео : -94 мс.
Размер потока : 68,9 Мбайт (7%)
ServiceKind/String : Complete Main
Аудио #2
Идентификатор : 189 (0xBD)-128 (0x80)
Формат : AC-3
Формат/Информация : Audio Coding 3
Параметр Endianness формата : Big
Режим смешивания : DVD-Video
Продолжительность : 6 с. 720 мс.
Вид битрейта : Постоянный
Битрейт : 384 Кбит/сек
Каналы : 6 каналов
Расположение каналов : Front: L C R, Side: L R, LFE
Частота : 48,0 КГц
Частота кадров : 31,250 кадров/сек (1536 spf)
Битовая глубина : 16 бит
Метод сжатия : С потерями
Размер потока : 315 Кбайт (0%)
ServiceKind/String : Complete Main
Аудио #3
Идентификатор : 189 (0xBD)-130 (0x82)
Формат : AC-3
Формат/Информация : Audio Coding 3
Параметр Endianness формата : Big
Режим смешивания : DVD-Video
Продолжительность : 6 с. 720 мс.
Вид битрейта : Постоянный
Битрейт : 384 Кбит/сек
Каналы : 6 каналов
Расположение каналов : Front: L C R, Side: L R, LFE
Частота : 48,0 КГц
Частота кадров : 31,250 кадров/сек (1536 spf)
Битовая глубина : 16 бит
Метод сжатия : С потерями
Размер потока : 315 Кбайт (0%)
ServiceKind/String : Complete Main
Аудио #4
Идентификатор : 189 (0xBD)-131 (0x83)
Формат : AC-3
Формат/Информация : Audio Coding 3
Параметр Endianness формата : Big
Режим смешивания : DVD-Video
Продолжительность : 6 с. 720 мс.
Вид битрейта : Постоянный
Битрейт : 384 Кбит/сек
Каналы : 6 каналов
Расположение каналов : Front: L C R, Side: L R, LFE
Частота : 48,0 КГц
Частота кадров : 31,250 кадров/сек (1536 spf)
Битовая глубина : 16 бит
Метод сжатия : С потерями
Размер потока : 315 Кбайт (0%)
ServiceKind/String : Complete Main
Аудио #5
Идентификатор : 189 (0xBD)-132 (0x84)
Формат : AC-3
Формат/Информация : Audio Coding 3
Режим : Dolby Digital
Параметр Endianness формата : Big
Режим смешивания : DVD-Video
Продолжительность : 6 с. 688 мс.
Вид битрейта : Постоянный
Битрейт : 96,0 Кбит/сек
Каналы : 2 канала
Расположение каналов : Front: L R
Частота : 48,0 КГц
Частота кадров : 31,250 кадров/сек (1536 spf)
Битовая глубина : 16 бит
Метод сжатия : С потерями
Размер потока : 78,4 Кбайт (0%)
ServiceKind/String : Complete Main
Текст #1
Идентификатор : 189 (0xBD)-32 (0x20)
Формат : RLE
Формат/Информация : Run-length encoding
Режим смешивания : DVD-Video
Текст #2
Идентификатор : 189 (0xBD)-33 (0x21)
Формат : RLE
Формат/Информация : Run-length encoding
Режим смешивания : DVD-Video
Текст #3
Идентификатор : 189 (0xBD)-34 (0x22)
Формат : RLE
Формат/Информация : Run-length encoding
Режим смешивания : DVD-Video
Текст #4
Идентификатор : 189 (0xBD)-35 (0x23)
Формат : RLE
Формат/Информация : Run-length encoding
Режим смешивания : DVD-Video
Текст #5
Идентификатор : 189 (0xBD)-36 (0x24)
Формат : RLE
Формат/Информация : Run-length encoding
Режим смешивания : DVD-Video
Текст #6
Идентификатор : 189 (0xBD)-37 (0x25)
Формат : RLE
Формат/Информация : Run-length encoding
Режим смешивания : DVD-Video
Текст #7
Идентификатор : 189 (0xBD)-38 (0x26)
Формат : RLE
Формат/Информация : Run-length encoding
Режим смешивания : DVD-Video
Текст #8
Идентификатор : 189 (0xBD)-39 (0x27)
Формат : RLE
Формат/Информация : Run-length encoding
Режим смешивания : DVD-Video
Текст #9
Идентификатор : 189 (0xBD)-40 (0x28)
Формат : RLE
Формат/Информация : Run-length encoding
Режим смешивания : DVD-Video

Скриншоты меню

Скриншоты

[www.cybertorrent.ru].t541.torrent 
Торрент: Зарегистрирован [ 2018-02-15 20:27 ] · B7D42CCB7F1FFEFE0C09682D48501620CF5CACA9

Скачать .torrent

Скачать

19 KB

Статус: проверено
Скачан: 0 раз
Размер: 6,72 GB
Профиль [ЛС]
Показать сообщения:    

Текущее время: 18-Июн 20:48

Часовой пояс: UTC ± 0



Вы не можете начинать темы
Вы не можете отвечать на сообщения
Вы не можете редактировать свои сообщения
Вы не можете удалять свои сообщения
Вы не можете голосовать в опросах
Вы не можете прикреплять файлы к сообщениям
Вы можете скачивать файлы