BitTorrent клиенты



Полиция Лос-Анджелеса / L.A.P.D.: To Protect And To Serve (Эд Андерс /Ed Anders/) [2001, США, боевик, драма, криминал, DVDRip] MVO

Ответить на тему
 
Автор Сообщение

Angel ®

Пол: Не указан

Стаж: 1 год

Сообщений: 1346

Создавать темы 04-Фев-2018 02:59

[Цитировать]

Полиция Лос-Анджелеса / L.A.P.D.: To Protect And To Serve
Страна: США
Жанр: боевик, драма, криминал
Год выпуска: 2001
Продолжительность: 01:33:11
Перевод: Профессиональный (многоголосый закадровый)
Субтитры: нет
Режиссер: Эд Андерс / Ed Anders
В ролях: Марк Сингер, Дэннис Хоппер, Вейн Кроуфорд, Чарльз Дернинг, Стив Вачич, Киара Хантер, Майкл Мэдсен, Кэролин Данн, Джон Новак
Описание: Капитан Эллсуорт с трудом сдержал гнев, когда его новый подчиненный Сэм Стил отказался выполнить приказ дождаться антитеррористическую группу. В результате попытка ограбления банка вылилась в жестокую перестрелку, похожую на небольшую войну. А потом Стил и вовсе «попал в переплет». Он накрыл с поличным «заслуженного ветерана» полиции Лос-Анджелеса лейтенанта Александера, который организовал небольшой «бизнес на стороне» с широким ассортиментом услуг: от грабежей до заказных убийств. Застав Александера и его «банду» за ограблением склада, Стил должен быстро принять решение: сделать вид, что ничего не заметил, или «сдать» своих товарищей по работе, подвергнув себя смертельной опасности…
Сэмпл: http://multi-up.com/1180668
Качество видео: DVDRip (Исходник - DVD Video)
Формат видео: AVI
Видео: XviD 73, 640x480, (4:3), 25,000 fps, 917 Кбит/с, 8 бит
Аудио: Русский (АС3, 2 ch (Front: L R), 48,0 KHz, 192 Kbps)

MediaInfo

Общее
Полное имя : H:\Фильмы на трекер\Полиция Лос-Анджелеса (боевик, драма, криминал 2001 год).avi
Формат : AVI
Формат/Информация : Audio Video Interleave
Размер файла : 746 Мбайт
Продолжительность : 1 ч. 33 м.
Общий поток : 1119 Кбит/сек
Программа кодирования : VirtualDubMod 1.5.10.3 | www.virtualdub-fr.org || (build 2550/release)
Библиотека кодирования : VirtualDubMod build 2550/release
Видео
Идентификатор : 0
Формат : MPEG-4 Visual
Профиль формата : Advanced Simple@L5
Параметр BVOP формата : 2
Параметр QPel формата : Нет
Параметр GMC формата : Без точки перехода
Параметр матрицы формата : Выборочная
Идентификатор кодека : XVID
Идентификатор кодека/Подсказка : XviD
Продолжительность : 1 ч. 33 м.
Битрейт : 917 Кбит/сек
Ширина : 640 пикселей
Высота : 480 пикселей
Соотношение сторон : 4:3
Частота кадров : 25,000 кадров/сек
Цветовое пространство : YUV
Субдискретизация насыщенности : 4:2:0
Битовая глубина : 8 бит
Тип развёртки : Прогрессивная
Метод сжатия : С потерями
Бит/(Пиксели*Кадры) : 0.119
Размер потока : 611 Мбайт (82%)
Библиотека кодирования : XviD 73
Аудио
Идентификатор : 1
Формат : AC-3
Формат/Информация : Audio Coding 3
Расширение режима : CM (complete main)
Параметр Endianness формата : Big
Идентификатор кодека : 2000
Продолжительность : 1 ч. 33 м.
Вид битрейта : Постоянный
Битрейт : 192 Кбит/сек
Каналы : 2 канала
Расположение каналов : Front: L R
Частота : 48,0 КГц
Частота кадров : 31,250 кадров/сек (1536 spf)
Метод сжатия : С потерями
Размер потока : 128 Мбайт (17%)
Выравнивание : Разделение по промежуткам
Продолжительность промежутка : 40 мс. (1,00 видеокадр)
Время предзагрузки промежутка : 500 мс.

Скриншот c названием фильма

Скриншоты

[Профиль] [ЛС]
Показать сообщения:    
Ответить на тему

Текущее время: 19-Фев 16:37

Часовой пояс: UTC + 3



Вы не можете начинать темы
Вы не можете отвечать на сообщения
Вы не можете редактировать свои сообщения
Вы не можете удалять свои сообщения
Вы не можете голосовать в опросах
Вы не можете прикреплять файлы к сообщениям
Вы можете скачивать файлы