BitTorrent клиенты



Мысли о свободе / Duma (Кэррол Бэллард / Carroll Ballard) [2005, США, ЮАР, драма, приключения, семейный, WEB-DLRip] MVO

Ответить на тему
 
Автор Сообщение

Angel ®

Пол: Не указан

Стаж: 1 год

Сообщений: 1346

Создавать темы 04-Фев-2018 02:59

[Цитировать]

Мысли о свободе / Duma
Страна: США, ЮАР
Студия: Warner Bros.
Жанр: Драма, приключения, семейный
Год выпуска: 2005
Продолжительность: 01:40:35-Перевод: Профессиональный (многоголосый закадровый)
Субтитры: нет
Оригинальная аудиодорожка: нет-Режиссер: Кэррол Бэллард / Carroll Ballard-В ролях: Алекс Микаэлетос, Кэмпбелл Скотт, Мэри Махато, Нтабисенг Кеноши, Хоуп Дэвис, Дженнифер Штейн, Никки Ребелло, Гарт Ренекл, Андре Штольц, Шарлотта Сэвадж-Описание: Удивительная история о 12-летнем мальчике Ксане, который вырастил гепарда, а затем вернул его в родные края и отпустил на волю. Суровые южноафриканские пейзажи, львы, крокодилы, бурные реки и таинственный странник, который надеется обернуть гепарда в деньги — все это станет испытанием мужества и решимости Ксана…-Тип релиза: WEB-DLRip | Duma.2005.1080p.WEB-DL.MVO.ENG.SUB.Rus.Eng
Контейнер: AVI
Видео: 704x400 (1.76:1), 23.976 fps, XviD build 73 ~1684 kbps avg, 0.25 bit/pixel
Аудио: 48 kHz, AC3 Dolby Digital, 3/2 (L,C,R,l,r) + LFE ch, ~384 kbps-Сэмпл-

MediaInfo

Код:Format : AVI
Format/Info : Audio Video Interleave
File size : 1.46 GiB
Duration : 1 h 40 min
Overall bit rate : 2 078 kb/s
Writing application : VirtualDubMod 1.5.10.3 | www.virtualdub-fr.org || (build 2550/release)
Writing library : VirtualDubMod build 2550/release
Video
ID : 0
Format : MPEG-4 Visual
Format profile : Advanced Simple@L5
Format settings : BVOP1 / Custom Matrix
Format settings, BVOP : 1
Format settings, QPel : No
Format settings, GMC : No warppoints
Format settings, Matrix : Custom
Codec ID : XVID
Codec ID/Hint : XviD
Duration : 1 h 40 min
Bit rate : 1 685 kb/s
Width : 704 pixels
Height : 400 pixels
Display aspect ratio : 16:9
Frame rate : 23.976 (24000/1001) FPS
Color space : YUV
Chroma subsampling : 4:2:0
Bit depth : 8 bits
Scan type : Progressive
Compression mode : Lossy
Bits/(Pixel*Frame) : 0.250
Stream size : 1.18 GiB (81%)
Writing library : XviD 73
Audio
ID : 1
Format : AC-3
Format/Info : Audio Coding 3
Codec ID : 2000
Duration : 1 h 40 min
Bit rate mode : Constant
Bit rate : 384 kb/s
Channel(s) : 6 channels
Channel positions : Front: L C R, Side: L R, LFE
Sampling rate : 48.0 kHz
Frame rate : 31.250 FPS (1536 SPF)
Bit depth : 16 bits
Compression mode : Lossy
Stream size : 276 MiB (18%)
Alignment : Split accross interleaves
Interleave, duration : 42 ms (1.00 video frame)
Interleave, preload duratio : 500 ms
Service kind : Complete Main

Скриншоты

[Профиль] [ЛС]
Показать сообщения:    
Ответить на тему

Текущее время: 19-Фев 16:19

Часовой пояс: UTC + 3



Вы не можете начинать темы
Вы не можете отвечать на сообщения
Вы не можете редактировать свои сообщения
Вы не можете удалять свои сообщения
Вы не можете голосовать в опросах
Вы не можете прикреплять файлы к сообщениям
Вы можете скачивать файлы