BitTorrent клиенты



Константин: Повелитель тьмы / Constantine (Френсис Лоуренс / Francis Lawrence) [2005, США, Триллер, фэнтези, приключения, WEB-DLRip] [Open Matte] Dub

Ответить на тему
 
Автор Сообщение

Angel ®

Пол: Не указан

Стаж: 1 год

Сообщений: 1346

Создавать темы 04-Фев-2018 02:59

[Цитировать]

Константин: Повелитель тьмы / Constantine
Страна: США
Жанр: Триллер, фэнтези, приключения
Год выпуска: 2005
Продолжительность: 02:00:47-Перевод: Профессиональный (дублированный)
Субтитры: нет-Режиссер: Френсис Лоуренс / Francis Lawrence-В ролях: Киану Ривз, Рейчел Вайс, Шайа ЛаБаф, Джимон Хунсу, Макс Бейкер, Прюитт Тэйлор Винс, Гэвин Россдэйл, Тильда Суинтон, Петер Стормаре, Джесси Рамирез-Описание: Родившись с уникальным талантом, который иначе как проклятием и не назовешь, – распознавать демонов и ангелов под замаскированными личинами «людей» – он может видеть их настоящие лица, будь они божественного или демонического происхождения. В надежде на обретение мира и избавления от этого жуткого бремени, которое никому не дано понять, в юности он отваживается на самоубийство. Но вместо долгожданного успокоения Константин получает право на двухминутную путевку в глубины ада – кошмар за пределами человеческого воображения...-Качество видео: WEB-DLRip
Формат видео: AVI
Видео: 720x400 (1.80:1), 23.976 fps, XviD build 73 ~1336 kbps avg, 0.19 bit/pixel
Аудио: 48 kHz, AC3 Dolby Digital, 3/2 (L,C,R,l,r) + LFE ch, ~384 kbps-Скачать сэмпл-

BD vs Open Matte



MediaInfo

Код:Format : AVI
Format/Info : Audio Video Interleave
File size : 1.46 GiB
Duration : 2 h 0 min
Overall bit rate : 1 730 kb/s
Writing application : VirtualDubMod 1.5.10.2 (build 2542/release)
Writing library : VirtualDubMod build 2542/release
Video
ID : 0
Format : MPEG-4 Visual
Format profile : Advanced Simple@L5
Format settings : BVOP1 / Custom Matrix
Format settings, BVOP : 1
Format settings, QPel : No
Format settings, GMC : No warppoints
Format settings, Matrix : Custom
Codec ID : XVID
Codec ID/Hint : XviD
Duration : 2 h 0 min
Bit rate : 1 337 kb/s
Width : 720 pixels
Height : 400 pixels
Display aspect ratio : 16:9
Frame rate : 23.976 (24000/1001) FPS
Color space : YUV
Chroma subsampling : 4:2:0
Bit depth : 8 bits
Scan type : Progressive
Compression mode : Lossy
Bits/(Pixel*Frame) : 0.194
Stream size : 1.13 GiB (77%)
Writing library : XviD 73
Audio
ID : 1
Format : AC-3
Format/Info : Audio Coding 3
Codec ID : 2000
Duration : 2 h 0 min
Bit rate mode : Constant
Bit rate : 384 kb/s
Channel(s) : 6 channels
Channel positions : Front: L C R, Side: L R, LFE
Sampling rate : 48.0 kHz
Frame rate : 31.250 FPS (1536 SPF)
Bit depth : 16 bits
Compression mode : Lossy
Stream size : 332 MiB (22%)
Alignment : Split accross interleaves
Interleave, duration : 42 ms (1.00 video frame)
Interleave, preload duratio : 500 ms
Service kind : Complete Main

Скриншоты

[Профиль] [ЛС]
Показать сообщения:    
Ответить на тему

Текущее время: 21-Фев 23:39

Часовой пояс: UTC + 3



Вы не можете начинать темы
Вы не можете отвечать на сообщения
Вы не можете редактировать свои сообщения
Вы не можете удалять свои сообщения
Вы не можете голосовать в опросах
Вы не можете прикреплять файлы к сообщениям
Вы можете скачивать файлы