BitTorrent клиенты



ВТЦ взгляд / Вид на Всемирный торговый центр / WTC View (Брайан Слоун / Brian Sloan) [2005, США, драма, гей-тема, DVDRip] AVO (Кузнецов)

Ответить на тему
 
Автор Сообщение

Angel ®

Пол: Не указан

Стаж: 1 год

Сообщений: 1346

Создавать темы 04-Фев-2018 02:59

[Цитировать]

ВТЦ взгляд / Вид на Всемирный торговый центрWTC View Страна: США
Жанр: драма, гей-тема
Год выпуска: 2005
Продолжительность: 01:44:14-Перевод: Авторский (одноголосый закадровый) Сергей Кузнецов
Субтитры: нет-Режиссер: Брайан Слоун / Brian Sloan
В ролях: Майкл Юри, Jeremy Beazlie, Лукас Папаэлиас, Elizabeth Kapplow, Майкл Линстрот, Nick Potenzieri, Джей Гиллеспи-Описание:
Молодой парень-гей, живущий в квартире с видом на башни Всемирного торгового центра в Нью-Йорке, размещает свое объявление о том, что ищет парня, желающего разделить с ним расходы по найму квартиры, как раз накануне теракта — 10 сентября. А 12-го, на следующий день после теракта, у него на автоответчике уже целых 5 сообщений от парней, желающих посмотреть квартиру. Фильм рассказывает о том, как он выбирает себе приятеля, одновременно пытаясь справиться с шоком, вызванным терактом.-Сэмпл-Качество видео: DVDRip
Формат видео: AVI
Видео: 560x304 (1.84:1), 23.976 fps, XviD Final 1.1 (build 41) ~792 kbps avg, 0.19 bit/pixel
Аудио: 48 kHz, AC3 Dolby Digital, 2/0 (L,R) ch, ~192 kbps

MediaInfo

General
Complete name : G:\WTC.View.Kuznecov.avi
Format : AVI
Format/Info : Audio Video Interleave
File size : 741 MiB
Duration : 1h 44mn
Overall bit rate : 994 Kbps
Video
ID : 0
Format : MPEG-4 Visual
Format profile : Advanced Simple@L5
Format settings, BVOP : 2
Format settings, QPel : No
Format settings, GMC : No warppoints
Format settings, Matrix : Default (H.263)
Codec ID : XVID
Codec ID/Hint : XviD
Duration : 1h 44mn
Bit rate : 792 Kbps
Width : 560 pixels
Height : 304 pixels
Display aspect ratio : 1.85:1
Frame rate : 23.976 fps
Color space : YUV
Chroma subsampling : 4:2:0
Bit depth : 8 bits
Scan type : Progressive
Compression mode : Lossy
Bits/(Pixel*Frame) : 0.194
Stream size : 591 MiB (80%)
Writing library : XviD 1.1.0 (UTC 2005-11-22)
Audio
ID : 1
Format : AC-3
Format/Info : Audio Coding 3
Mode extension : CM (complete main)
Format settings, Endianness : Big
Codec ID : 2000
Duration : 1h 44mn
Bit rate mode : Constant
Bit rate : 192 Kbps
Channel(s) : 2 channels
Channel positions : Front: L R
Sampling rate : 48.0 KHz
Bit depth : 16 bits
Compression mode : Lossy
Stream size : 143 MiB (19%)
Alignment : Split accross interleaves
Interleave, duration : 42 ms (1.00 video frame)
Interleave, preload duration : 500 ms

Скриншот c названием фильма

Скриншоты

[Профиль] [ЛС]
Показать сообщения:    
Ответить на тему

Текущее время: 19-Фев 16:19

Часовой пояс: UTC + 3



Вы не можете начинать темы
Вы не можете отвечать на сообщения
Вы не можете редактировать свои сообщения
Вы не можете удалять свои сообщения
Вы не можете голосовать в опросах
Вы не можете прикреплять файлы к сообщениям
Вы можете скачивать файлы