BitTorrent клиенты



Они / They (Роберт Хармон / Robert Harmon) [2002, США, Канада, ужасы, триллер, детектив, WEB-DLRip] [Open Matte] MVO

Ответить на тему
 
Автор Сообщение

Angel ®

Пол: Не указан

Стаж: 1 год

Сообщений: 1346

Создавать темы 04-Фев-2018 02:59

[Цитировать]

Они / They
Год выпуска: 2002
Страна: США, Канада
Жанр: ужасы, триллер, детектив
Продолжительность: 01:30:08-Перевод: Профессиональный (многоголосый закадровый) | R5
Субтитры: нет
Оригинальная аудиодорожка: нет-Режиссер: Роберт Хармон / Robert Harmo-В ролях: Лаура Риган, Марк Блукас, Итэн Эмбри, Дагмара Доминчук, Джон Абрахамс, Александр Гулд, Дезире Зуровски, Марк Хилдрет, Джонатан Черри, Питер ЛаКруа-Описание:
Джулия Лундис с виду хорошо уравновешенная молодая женщина, готовящаяся получить степень магистра психологии. Однажды ночью она получает звонок от своего друга детства Билли. Билли сообщает Джулии, что ночные монстры, которые мучили их обоих в детстве, вернулись.
Прежде чем Джулия смогла его успокоить, Билли застрелился. Приехав на похороны, Джулия разговаривает с друзьями Билли по колледжу, которые говорят, что в детстве их тоже мучили кошмары. Уже находясь в напряжении перед защитой диплома, Джулия должна теперь бороться со сверхъестественным злом, угрожающим ее жизни…-Тип релиза: WEB-DLRip
Контейнер: AVI
Видео: 720x400 (1.80:1), 23.976 fps, XviD build 73 ~1920 kbps avg, 0.28 bit/pixel
Аудио: 48 kHz, AC3 Dolby Digital, 3/2 (L,C,R,l,r) + LFE ch, ~384 kbps-Скачать сэмпл-

BDRip vs Open Matte



MediaInfo

Код:Format : AVI
Format/Info : Audio Video Interleave
File size : 1.46 GiB
Duration : 1 h 30 min
Overall bit rate : 2 314 kb/s
Writing application : VirtualDubMod 1.5.10.3 | www.virtualdub-fr.org || (build 2550/release)
Writing library : VirtualDubMod build 2550/release
Video
ID : 0
Format : MPEG-4 Visual
Format profile : Advanced Simple@L5
Format settings : BVOP1 / Custom Matrix
Format settings, BVOP : 1
Format settings, QPel : No
Format settings, GMC : No warppoints
Format settings, Matrix : Custom
Codec ID : XVID
Codec ID/Hint : XviD
Duration : 1 h 30 min
Bit rate : 1 921 kb/s
Width : 720 pixels
Height : 400 pixels
Display aspect ratio : 16:9
Frame rate : 23.976 (24000/1001) FPS
Color space : YUV
Chroma subsampling : 4:2:0
Bit depth : 8 bits
Scan type : Progressive
Compression mode : Lossy
Bits/(Pixel*Frame) : 0.278
Stream size : 1.21 GiB (83%)
Writing library : XviD 73
Audio
ID : 1
Format : AC-3
Format/Info : Audio Coding 3
Codec ID : 2000
Duration : 1 h 30 min
Bit rate mode : Constant
Bit rate : 384 kb/s
Channel(s) : 6 channels
Channel positions : Front: L C R, Side: L R, LFE
Sampling rate : 48.0 kHz
Frame rate : 31.250 FPS (1536 SPF)
Bit depth : 16 bits
Compression mode : Lossy
Stream size : 247 MiB (17%)
Alignment : Split accross interleaves
Interleave, duration : 42 ms (1.00 video frame)
Interleave, preload duratio : 500 ms
Service kind : Complete Main

Скриншоты

[Профиль] [ЛС]
Показать сообщения:    
Ответить на тему

Текущее время: 21-Фев 23:34

Часовой пояс: UTC + 3



Вы не можете начинать темы
Вы не можете отвечать на сообщения
Вы не можете редактировать свои сообщения
Вы не можете удалять свои сообщения
Вы не можете голосовать в опросах
Вы не можете прикреплять файлы к сообщениям
Вы можете скачивать файлы