BitTorrent клиенты



Зачистка / Swept Under (Мишель Полетт / Michel Poulette) [2005, Канада, триллер, HDTVRip] DVO

Ответить на тему
 
Автор Сообщение

Angel ®

Пол: Не указан

Стаж: 1 год

Сообщений: 1346

Создавать темы 04-Фев-2018 02:59

[Цитировать]

-Зачистка / Swept Under-- -Страна: Канада
Жанр: триллер
Год выпуска: 2005
Продолжительность: 01:27:15-Перевод: Профессиональный (двухголосый закадровый)
Субтитры: нет
Оригинальная аудиодорожка: нет-Режиссер: Мишель Полетт / Michel Poulette-В ролях: Девин Келли, Аарон Эшмор, Стивен Богерт, Бретт Райан, Джоэнн Боланд, Андре Бедард, Стефани Коста, Владимир Джон Кабрт, Марианн Фарли-Описание: Её работа - убирать место преступления после исследования. Очередная уборка заканчивается находкой, которая становится доказательством. Новичок отдела убийств предлагает ей принять участие в расследовании.- - -Качество видео: HDTVRip / HDTV 1080i
Формат видео: AVI-Видео: XviD build 67, 720x400 (16:9), 25.000 fps, ~1998 kbps avg, 0.277 bit/pixel
Аудио: 48 kHz, AC3 Dolby Digital, 3/2 (L,C,R,l,r) + LFE ch, ~384 kbps avg-

MediaInfo

Complete name : D:\Раздачи\Зачистка (2015) HDTVRip_ivanes20031987.avi
Format : AVI
Format/Info : Audio Video Interleave
File size : 1.46 GiB
Duration : 1 h 27 min
Overall bit rate : 2 391 kb/s
Writing application : VirtualDubMod 1.5.10.3 (build 2550/release)
Writing library : VirtualDubMod build 2550/release
Video
ID : 0
Format : MPEG-4 Visual
Format profile : Advanced Simple@L5
Format settings, BVOP : 1
Format settings, QPel : No
Format settings, GMC : No warppoints
Format settings, Matrix : Custom
Codec ID : XVID
Codec ID/Hint : XviD
Duration : 1 h 27 min
Bit rate : 1 998 kb/s
Width : 720 pixels
Height : 400 pixels
Display aspect ratio : 16:9
Frame rate : 25.000 FPS
Color space : YUV
Chroma subsampling : 4:2:0
Bit depth : 8 bits
Scan type : Progressive
Compression mode : Lossy
Bits/(Pixel*Frame) : 0.277
Stream size : 1.22 GiB (84%)
Writing library : XviD 67
Audio
ID : 1
Format : AC-3
Format/Info : Audio Coding 3
Format settings, Endianness : Big
Codec ID : 2000
Duration : 1 h 27 min
Bit rate mode : Constant
Bit rate : 384 kb/s
Channel(s) : 6 channels
Channel positions : Front: L C R, Side: L R, LFE
Sampling rate : 48.0 kHz
Frame rate : 31.250 FPS (1536 SPF)
Bit depth : 16 bits
Compression mode : Lossy
Stream size : 240 MiB (16%)
Alignment : Split accross interleaves
Interleave, duration : 40 ms (1.00 video frame)
Interleave, preload duratio : 500 ms
Service kind : Complete Main

Скриншоты

[Профиль] [ЛС]
Показать сообщения:    
Ответить на тему

Текущее время: 21-Фев 23:36

Часовой пояс: UTC + 3



Вы не можете начинать темы
Вы не можете отвечать на сообщения
Вы не можете редактировать свои сообщения
Вы не можете удалять свои сообщения
Вы не можете голосовать в опросах
Вы не можете прикреплять файлы к сообщениям
Вы можете скачивать файлы