BitTorrent клиенты



Тринадцать привидений / 13 призраков / Thir13en Ghosts / Thirteen Ghosts (Стив Бек / Steve Beck) [2001, США, Канада, ужасы, триллер, детектив, VHSRip > DVD] [Promo Copy | Fullscreen] AVO (Визгунов)

Ответить на тему
 
Автор Сообщение

Angel ®

Пол: Не указан

Стаж: 1 год

Сообщений: 1346

Создавать темы 04-Фев-2018 02:59

[Цитировать]

Тринадцать привидений / 13 призраков / Thir13en Ghosts / Thirteen Ghosts [Promo Copy | Fullscreen]- Страна: США, Канада
Жанр: ужасы, триллер, детектив
Год выпуска: 2001
Продолжительность: 01:29:30-Перевод: Авторский (одноголосый закадровый) - Сергей Визгунов
Субтитры: нет-Режиссер: Стив Бек / Steve Beck
В ролях: Тони Шалхуб, Эмбет Дэвидц, Мэттью Лиллард, Шеннон Элизабет, Алек Робертс, ДжейАр Борн, Ра Дигга, Ф. Мюррэй Абрахам, Мэттью Харрисон, Джейкоб Рапп...- | Релиз: -Описание: После смерти своего странного дядюшки Сайруса, Артур Критикос унаследовал его не менее странный дом. В этом причудливом здании все стены и пол из стекла, украшенного латинскими заклинаниями. В этом доме автоматические двери живут своей жизнью, открываясь и закрываясь в ритме, недоступном человеческому пониманию.
Не сразу Артур поймет, что, переступив порог этого жуткого особняка, он исполнит злую волю Сайруса и освободит дюжину мстительных призраков, обитающих в подвале. И тогда энергия духов приведет в действие агрегат, открывающий путь ко всей мощи потустороннего мира. Но для этого нужно, чтобы к черному зодиаку двенадцати привидений присоединилось еще одно…-Доп. информация: Личная оцифровка VHS. К сожалению, финальные титры не до конца.-Семпл: http://sendfile.su/1382010-Тип релиза: VHSRip
Контейнер: DVD-Video
Видео: NTSC 720x480 (4:3) @ 640x480, 23.976 fps, MPEG-2 Video, ~5300 Kbps, 0.640 bits/pixel
Аудио: Русский, 48.0 KHz, PCM, 2 ch, 1536 Kbps | Hi-Fi Stereo

DVDInfo

Title: 13 Ghosts 2001 Promo VHS Fullscreen AVO Vizgunov
Size: 4.37 Gb ( 4 578 476,00 KBytes ) - DVD-5
Enabled regions: 1, 2, 3, 4, 5, 6, 7, 8
VTS_01 :
Play Length: 01:29:30
Video: NTSC 4:3 (720x480) VBR
Audio:
Russian (LinearPCM, 2 ch)

MediaInfo

General
Complete name : \13 Ghosts 2001 Promo VHS Fullscreen AVO Vizgunov\VIDEO_TS\VTS_01_1.VOB
Format : MPEG-PS
File size : 1 024 MiB
Duration : 20 min 31 s
Overall bit rate mode : Variable
Overall bit rate : 6 975 kb/s
Video
ID : 224 (0xE0)
Format : MPEG Video
Format version : Version 2
Format profile : Main@Main
Format settings : CustomMatrix / BVOP
Format settings, BVOP : Yes
Format settings, Matrix : Custom
Format settings, GOP : M=3, N=12
Duration : 20 min 31 s
Bit rate mode : Variable
Bit rate : 5 300 kb/s
Width : 720 pixels
Height : 480 pixels
Display aspect ratio : 4:3
Frame rate : 23.976 (24000/1001) FPS
Color space : YUV
Chroma subsampling : 4:2:0
Bit depth : 8 bits
Scan type : Progressive
Scan order : 2:3 Pulldown
Compression mode : Lossy
Bits/(Pixel*Frame) : 0.640
Time code of first frame : 00:00:00:00
Time code source : Group of pictures header
GOP, Open/Closed : Open
GOP, Open/Closed of first frame : Closed
Stream size : 778 MiB (76%)
Audio
ID : 189 (0xBD)-160 (0xA0)
Format : PCM
Format settings : Big / Signed
Format settings, Endianness : Big
Format settings, Sign : Signed
Muxing mode : DVD-Video
Duration : 20 min 31 s
Bit rate mode : Constant
Bit rate : 1 536 kb/s
Channel(s) : 2 channels
Sampling rate : 48.0 kHz
Bit depth : 16 bits
Stream size : 225 MiB (22%)
Menu

Скриншоты

Fullscreen VS Widescreen

Fullscreen Promo VHS- -Widescreen BD-

Скан обложки VHS

[Профиль] [ЛС]
Показать сообщения:    
Ответить на тему

Текущее время: 23-Фев 00:31

Часовой пояс: UTC + 3



Вы не можете начинать темы
Вы не можете отвечать на сообщения
Вы не можете редактировать свои сообщения
Вы не можете удалять свои сообщения
Вы не можете голосовать в опросах
Вы не можете прикреплять файлы к сообщениям
Вы можете скачивать файлы