BitTorrent клиенты



Покидая Метрополис / Leaving Metropolis (Брэд Фрейзер / Brad Fraser) [2002, Канада, мелодрама, комедия, гей-тема, DVDRip] AVO (Кузнецов)

Ответить на тему
 
Автор Сообщение

Angel ®

Пол: Не указан

Стаж: 1 год

Сообщений: 1346

Создавать темы 04-Фев-2018 02:59

[Цитировать]

Покидая МетрополисLeaving Metropolis Страна: Канада
Жанр: мелодрама, комедия, гей-тема
Год выпуска: 2002
Продолжительность: 01:29:06-Перевод: Авторский (одноголосый закадровый) Сергей Кузнецов
Субтитры: нет-Режиссер: Брэд Фрейзер / Brad Fraser
В ролях: Трой Раптэш, Винс Корацца, Линда Бойд, Шерили Тэйлор, Том Эллисон, Арни Макферсон, Том Аннико-Описание:
Дэвид — художник, который получает работу официанта в поисках вдохновления к рисованию. Он западает на владельца ректорана Мэтта. Но у того есть жена, Вайолет, и конечно ее существование все усложняет. Разведется ли Мэтт с Вайолет, узнает ли Вайолет правду?-Сэмпл-Качество видео: DVDRip
Формат видео: AVI
Видео: 560x304 (1.84:1), 23.976 fps, XviD build 9 ~960 kbps avg, 0.23 bit/pixel
Аудио: 48 kHz, AC3 Dolby Digital, 2/0 (L,R) ch, ~192 kbps

MediaInfo

General
Complete name : G:\Leaving.Metropolis.Kuznecov.avi
Format : AVI
Format/Info : Audio Video Interleave
File size : 740 MiB
Duration : 1h 29mn
Overall bit rate : 1 162 Kbps
Writing application : VirtualDubMod 1.5.10.2 (build 2540/release)
Writing library : VirtualDubMod build 2540/release
Video
ID : 0
Format : MPEG-4 Visual
Format profile : Simple@L3
Format settings, BVOP : No
Format settings, QPel : No
Format settings, GMC : No warppoints
Format settings, Matrix : Default (H.263)
Codec ID : XVID
Codec ID/Hint : XviD
Duration : 1h 29mn
Bit rate : 960 Kbps
Width : 560 pixels
Height : 304 pixels
Display aspect ratio : 1.85:1
Frame rate : 23.976 fps
Color space : YUV
Chroma subsampling : 4:2:0
Bit depth : 8 bits
Scan type : Progressive
Compression mode : Lossy
Bits/(Pixel*Frame) : 0.235
Stream size : 612 MiB (83%)
Writing library : XviD 0.0.09 (UTC 2003-03-25)
Audio
ID : 1
Format : AC-3
Format/Info : Audio Coding 3
Mode extension : CM (complete main)
Format settings, Endianness : Big
Codec ID : 2000
Duration : 1h 29mn
Bit rate mode : Constant
Bit rate : 192 Kbps
Channel(s) : 2 channels
Channel positions : Front: L R
Sampling rate : 48.0 KHz
Bit depth : 16 bits
Compression mode : Lossy
Stream size : 122 MiB (17%)
Alignment : Split accross interleaves
Interleave, duration : 42 ms (1.00 video frame)
Interleave, preload duration : 500 ms

Скриншот c названием фильма

Скриншоты

[Профиль] [ЛС]
Показать сообщения:    
Ответить на тему

Текущее время: 23-Фев 00:02

Часовой пояс: UTC + 3



Вы не можете начинать темы
Вы не можете отвечать на сообщения
Вы не можете редактировать свои сообщения
Вы не можете удалять свои сообщения
Вы не можете голосовать в опросах
Вы не можете прикреплять файлы к сообщениям
Вы можете скачивать файлы