BitTorrent клиенты



Убийственная сексуальность / Мёртвая красотка / Drop Dead Sexy (Майкл Филип / Michael Philip) [2005, США, комедия, криминал, DVDRip-AVC] MVO + DVO + Original Eng

Ответить на тему
 
Автор Сообщение

Angel ®

Пол: Не указан

Стаж: 1 год

Сообщений: 1346

Создавать темы 04-Фев-2018 02:59

[Цитировать]

Убийственная сексуальность / Мёртвая красотка / Drop Dead Sexy
Страна: США
Жанр: комедия, криминал
Год выпуска: 2005
Продолжительность: 01:23:36
Перевод 1: Профессиональный (многоголосый закадровый) Ирина Савина, Александр Котов, Олег Форостенко
Перевод 2: Профессиональный (двухголосый закадровый) Эльдар Куртсеитов...
Субтитры: нет
Оригинальная аудиодорожка: английский отдельным файлом
Режиссер: Майкл Филип / Michael Philip
В ролях: Джейсон Ли, Криспин Гловер, Бертон Гиллиам, Ксандер Беркли, Прюитт Тэйлор Винс, Джозеф Д. Рейтман, Стивен Честер Принц, Сюзанна Уршули, Дайан Климашевски, Элейн Климашевски...
Описание: Двое друзей придумывают разные аферы — комбинации, дабы раздобыть денег, которые нужны им, чтобы расплатится с кредитором, который обещал их убить если они это не сделают, но ничего не получается, тогда в их светлые головы приходит гениальная идея, похитить богатую покойницу и требовать с семьи выкуп, хлопот вроде бы никаких, ей ведь ничего не нужно, да и не сбежит, вот только зря они так думали…
Доп. информация: Перевод 1 с DVD. Перевод 2 с раздачи Lamro1985. Синхронизация звука - Dreven.
Сэмпл: http://sendfile.su/1381322
Качество видео: DVDRip-AVC
Формат видео: MKV
Видео: 718x480 (16:9) @ 850x480, 23.976 fps, AVC, ~2108 Kbps, 0.255 bits/pixel
Аудио 1: Russian, 48.0 KHz, AC3, 2 ch, 192 Kbps
Аудио 2: Russian, 48.0 KHz, AC3, 2 ch, 192 Kbps
Аудио 3: English, 48.0 KHz, AC3, 2 ch, 192 Kbps отдельным файлом

MediaInfo

General
Unique ID : 231010852776562383613197818080632799391 (0xADCB1266FEC22AA0B083C172A018809F)
Complete name : C:\Drop Dead Sexy\Drop Dead Sexy.mkv
Format : Matroska
Format version : Version 4 / Version 2
File size : 1.46 GiB
Duration : 1 h 23 min
Overall bit rate : 2 494 kb/s
Encoded date : UTC 2017-11-30 13:54:57
Writing application : mkvmerge v18.0.0 ('Apricity') 64-bit
Writing library : libebml v1.3.5 + libmatroska v1.4.8
Video
ID : 1
Format : AVC
Format/Info : Advanced Video Codec
Format profile : High@L3
Format settings : CABAC / 4 Ref Frames
Format settings, CABAC : Yes
Format settings, ReFrames : 4 frames
Codec ID : V_MPEG4/ISO/AVC
Duration : 1 h 23 min
Bit rate : 2 108 kb/s
Width : 718 pixels
Height : 480 pixels
Display aspect ratio : 16:9
Original display aspect rat : 16:9
Frame rate mode : Constant
Frame rate : 23.976 (24000/1001) FPS
Color space : YUV
Chroma subsampling : 4:2:0
Bit depth : 8 bits
Scan type : Progressive
Bits/(Pixel*Frame) : 0.255
Stream size : 1.23 GiB (85%)
Writing library : x264 core 120
Encoding settings : cabac=1 / ref=3 / deblock=1:0:0 / analyse=0x3:0x113 / me=hex / subme=7 / psy=1 / psy_rd=1.00:0.00 / mixed_ref=1 / me_range=16 / chroma_me=1 / trellis=1 / 8x8dct=1 / cqm=0 / deadzone=21,11 / fast_pskip=1 / chroma_qp_offset=-2 / threads=3 / sliced_threads=0 / nr=0 / decimate=1 / interlaced=0 / bluray_compat=0 / constrained_intra=0 / bframes=3 / b_pyramid=2 / b_adapt=2 / b_bias=0 / direct=1 / weightb=1 / open_gop=0 / weightp=2 / keyint=240 / keyint_min=24 / scenecut=40 / intra_refresh=0 / rc_lookahead=50 / rc=2pass / mbtree=1 / bitrate=2108 / ratetol=1.0 / qcomp=0.60 / qpmin=3 / qpmax=69 / qpstep=4 / cplxblur=20.0 / qblur=0.5 / ip_ratio=1.40 / aq=1:1.00
Language : English
Default : Yes
Forced : No
Color range : Limited
Color primaries : BT.601 NTSC
Transfer characteristics : BT.709
Matrix coefficients : BT.601
Audio #1
ID : 2
Format : AC-3
Format/Info : Audio Coding 3
Codec ID : A_AC3
Duration : 1 h 23 min
Bit rate mode : Constant
Bit rate : 192 kb/s
Channel(s) : 2 channels
Channel positions : Front: L R
Sampling rate : 48.0 kHz
Frame rate : 31.250 FPS (1536 SPF)
Bit depth : 16 bits
Compression mode : Lossy
Stream size : 115 MiB (8%)
Language : Russian
Service kind : Complete Main
Default : Yes
Forced : No
Audio #2
ID : 3
Format : AC-3
Format/Info : Audio Coding 3
Codec ID : A_AC3
Duration : 1 h 23 min
Bit rate mode : Constant
Bit rate : 192 kb/s
Channel(s) : 2 channels
Channel positions : Front: L R
Sampling rate : 48.0 kHz
Frame rate : 31.250 FPS (1536 SPF)
Bit depth : 16 bits
Compression mode : Lossy
Stream size : 115 MiB (8%)
Language : Russian
Service kind : Complete Main
Default : No
Forced : No

Скриншоты

[Профиль] [ЛС]
Показать сообщения:    
Ответить на тему

Текущее время: 21-Фев 23:38

Часовой пояс: UTC + 3



Вы не можете начинать темы
Вы не можете отвечать на сообщения
Вы не можете редактировать свои сообщения
Вы не можете удалять свои сообщения
Вы не можете голосовать в опросах
Вы не можете прикреплять файлы к сообщениям
Вы можете скачивать файлы