BitTorrent клиенты



Разворот / Eden's Curve (Энн Мисава / Anne Misawa) [2003, США, драма, мелодрама, гей-тема, DVDRip] AVO (Кузнецов)

Ответить на тему
 
Автор Сообщение

Angel ®

Пол: Не указан

Стаж: 1 год

Сообщений: 1346

Создавать темы 04-Фев-2018 02:59

[Цитировать]

РазворотEden's Curve Страна: США
Жанр: драма, мелодрама, гей-тема
Год выпуска: 2003
Продолжительность: 01:30:36-Перевод: Авторский (одноголосый закадровый) Сергей Кузнецов
Субтитры: нет-Режиссер: Энн Мисава / Anne Misawa
В ролях: Трэвор Лиссауер, Хулио Перильян, Сэмюэл А. Ливайн, Мэтью Уолкер, Эмбер Тейлор, Стефен Дэниелс, Андреа Вон, Брайан Кэрролл-Описание:
1972 год. Парень по имени Питер едет в университет Вирджинии, не зная, что его там ожидает. Он поселяется в дружелюбной семье, где он встречает Уильяма, парня чуть старше себя, который влюбляется в него. Между ними начинают развиваться романтические отношения, но Питер также флиртует со своим соседом по комнате Джо и с его девушкой Бесс.-Сэмпл-Качество видео: DVDRip
Формат видео: AVI
Видео: 640x352 (1.82:1), 29.970 fps, DivX Codec 5.1.1 ~904 kbps avg, 0.13 bit/pixel
Аудио: 48 kHz, AC3 Dolby Digital, 2/0 (L,R) ch, ~192 kbps

MediaInfo

General
Complete name : G:\Edens.Curve.Kuznecov.avi
Format : AVI
Format/Info : Audio Video Interleave
File size : 718 MiB
Duration : 1h 30mn
Overall bit rate : 1 108 Kbps
Video
ID : 0
Format : MPEG-4 Visual
Format settings, BVOP : 1
Format settings, QPel : No
Format settings, GMC : No warppoints
Format settings, Matrix : Default (H.263)
Codec ID : DX50
Codec ID/Hint : DivX 5
Duration : 1h 30mn
Bit rate : 904 Kbps
Width : 640 pixels
Height : 352 pixels
Display aspect ratio : 16:9
Frame rate : 29.970 fps
Color space : YUV
Chroma subsampling : 4:2:0
Bit depth : 8 bits
Scan type : Progressive
Compression mode : Lossy
Bits/(Pixel*Frame) : 0.134
Stream size : 586 MiB (82%)
Writing library : DivX 5.1.1 (Maupiti) (UTC 2003-11-19)
Audio
ID : 1
Format : AC-3
Format/Info : Audio Coding 3
Mode extension : CM (complete main)
Format settings, Endianness : Big
Codec ID : 2000
Duration : 1h 30mn
Bit rate mode : Constant
Bit rate : 192 Kbps
Channel(s) : 2 channels
Channel positions : Front: L R
Sampling rate : 48.0 KHz
Bit depth : 16 bits
Compression mode : Lossy
Stream size : 124 MiB (17%)
Alignment : Split accross interleaves
Interleave, duration : 33 ms (1.00 video frame)
Interleave, preload duration : 500 ms

Скриншот c названием фильма

Скриншоты

[Профиль] [ЛС]
Показать сообщения:    
Ответить на тему

Текущее время: 21-Фев 23:36

Часовой пояс: UTC + 3



Вы не можете начинать темы
Вы не можете отвечать на сообщения
Вы не можете редактировать свои сообщения
Вы не можете удалять свои сообщения
Вы не можете голосовать в опросах
Вы не можете прикреплять файлы к сообщениям
Вы можете скачивать файлы