Статистика раздачи
Размер:  2,77 GB   |    Зарегистрирован:  8 месяцев 7 дней   |    Скачан:  0 раз

Полного источника не было: Никогда

 
   
 
 

Zima ®

Пол:
Не указан
Стаж:
8 месяцев 8 дней
Сообщений:
42

Бременские разбойники
Страна: Россия, Украина
Жанр: Мультипликация
Продолжительность: 01:12:46
Год выпуска: 2016
Перевод: Не требуется
Русские субтитры: нет-Режиссёр: Алексей Лукьянчиков
Роли озвучивали: Дина Гарипова, Наталья Подольская, Максим Матвеев, Александр Иванов, Владимир Кошевой, Андрей Тартаков, Дмитрий Филимонов, Юлия Яблонская, Игорь Тарадайкин, Анастасия Садовская-Описание: Среди высохших рек и выжженных лесов раскинулось Королевство, где не поют птицы, не доются коровы, а люди живут в постоянном страхе и нищете. А все потому, что 18 лет назад в результате дворцового переворота к власти пришли хитрые и жадные Министры. Неповиновение новым законам жестоко карается, и никто не осмеливается перечить Королевской охране. Никто, кроме благородного разбойника Трубин Гуда, который грабит Министров и раздаёт награбленное бедным. А помогают ему в этом его верные друзья: кот Зигмунд, пес Баскервиль, петух Петруччо и ослица Гретхен. В то время как жители Королевства слагают о нём легенды, а Министры готовы отдать за его голову любую награду, сам Трубин Гуд мечтает лишь о том, чтобы вернуть Королевство к прежнему процветанию-Качество: WEB-DL 1080p
Формат: MKV
Видео: AVC, 1920x1080 (16:9), 25.000 fps, 4 965 Kbps (0.096 bit/pixel)
Аудио: AC-3, 48.0 KHz, 6 ch, 384 Kbps, CBR (Russian) [iTunes]
Субтитры: отсутствуют
Семпл: Забираем тут

Подробные технические данные

Общее
Уникальный идентификатор : 205717475744235269733847491882365204595 (0x9AC3BEA22A8324A78DF43A4D78DBB873)
Формат : Matroska
Версия формата : Version 2
Размер файла : 2,77 Гбайт
Продолжительность : 1 ч. 12 м.
Общий поток : 5458 Кбит/сек
Дата кодирования : UTC 2017-01-08 22:29:10
Программа кодирования : mkvmerge v8.3.0 ('Over the Horizon') 64bit
Библиотека кодирования : libebml v1.3.1 + libmatroska v1.4.2
Видео
Идентификатор : 1
Формат : AVC
Формат/Информация : Advanced Video Codec
Профиль формата : High@L4
Параметр CABAC формата : Да
Параметр ReFrames формата : 4 кадра
Идентификатор кодека : V_MPEG4/ISO/AVC
Продолжительность : 1 ч. 12 м.
Битрейт : 5072 Кбит/сек
Ширина : 1920 пикселей
Высота : 1080 пикселей
Соотношение сторон : 16:9
Режим частоты кадров : Постоянный
Частота кадров : 25,000 кадров/сек
Цветовое пространство : YUV
Субдискретизация насыщенности : 4:2:0
Битовая глубина : 8 бит
Тип развёртки : Прогрессивная
Бит/(Пиксели*Кадры) : 0.098
Размер потока : 2,58 Гбайт (93%)
Язык : English
Default : Да
Forced : Нет
Цветовой диапазон : Limited
Основные цвета : BT.709
Характеристики трансфера : BT.709
Коэффициенты матрицы : BT.709
Аудио
Идентификатор : 2
Формат : AC-3
Формат/Информация : Audio Coding 3
Расширение режима : CM (complete main)
Параметр Endianness формата : Big
Идентификатор кодека : A_AC3
Продолжительность : 1 ч. 12 м.
Вид битрейта : Постоянный
Битрейт : 384 Кбит/сек
Каналы : 6 каналов
Расположение каналов : Front: L C R, Side: L R, LFE
Частота : 48,0 КГц
Частота кадров : 31,250 кадров/сек (1536 spf)
Метод сжатия : С потерями
Размер потока : 200 Мбайт (7%)
Язык : Russian
Default : Да
Forced : Нет
Меню
00:00:00.000 : en:Глава 1
00:06:56.800 : en:Глава 2
00:14:10.160 : en:Глава 3
00:20:30.200 : en:Глава 4
00:27:14.720 : en:Глава 5
00:34:39.160 : en:Глава 6
00:40:54.000 : en:Глава 7
00:47:28.720 : en:Глава 8
00:54:09.840 : en:Глава 9
01:00:27.720 : en:Глава 10
01:07:20.480 : en:Глава 11

Скриншоты


[www.cybertorrent.ru].t2994.torrent 
Торрент: Зарегистрирован [ 2018-02-16 14:35 ] · 1D231DF0858D9D7C1E1A12ED3DA58B3D523F8EBD

Скачать .torrent

Скачать

14 KB

Статус: проверено
Скачан: 0 раз
Размер: 2,77 GB
Профиль [ЛС]
Показать сообщения:    

Текущее время: 24-Окт 06:09

Часовой пояс: UTC ± 0



Вы не можете начинать темы
Вы не можете отвечать на сообщения
Вы не можете редактировать свои сообщения
Вы не можете удалять свои сообщения
Вы не можете голосовать в опросах
Вы не можете прикреплять файлы к сообщениям
Вы можете скачивать файлы
Torrents24.ru открытый BitTorrent Torrents24.pl открытый BitTorrent CyberTorrent.ru открытый BitTorrent BtList.ru рейтинг BitTorrent трекеров Яндекс.Метрика