Статистика раздачи
Размер:  3,51 GB   |    Зарегистрирован:  10 месяцев 1 день   |    Скачан:  0 раз

Полного источника не было: Никогда

Личеров:  6  [  0 KB/s  ]  
 
   
 
 

Volga ®

Пол:
Не указан
Стаж:
10 месяцев 3 дня
Сообщений:
92

II Международный фестиваль "Золотая магия 21 века" / II Golden Magic 21 century
Дата/Год выпуска: 2017
Страна: Россия
Жанр: Шоу, фокусы
Продолжительность: 00:34:45
Перевод: Не требуется
Русские субтитры: нет
Оригинальная аудиодорожка: русский
Телеканал: Россия HD
Описание: 24-26 марта 2016 года на сцене «КРОКУС СИТИ ХОЛЛ» проходил 2-й Международный Фестиваль «ЗОЛОТАЯ МАГИЯ XXI ВЕКА» («Golden Magic 21 century»). В этот раз основной упор сделан на "зрелищной иллюзии". Для этого были приглашены шесть ведущих магов мира. Вы увидите:
1. Виктор Моисеев (Россия)
2. Кевин Джеймс (США)
3. Рафаэль (Бельгия)
4. Дэни Лари (Франция)
5. Шезан (Италия)
6. Мигель Муньос (Испания)
7. Эрикс Логан (Италия)
качество: HDTVRip
формат: MKV
Видео: H.264, 1920x1080, 25.000 fps, 14000 Kbps
Аудио: MPEG2, 2.0 ch, 48000 Hz, 192 Kbps

MediaInfo

General
Unique ID : 314978261996448860974180695128877577235 (0xECF69B4E22A69B4484BBDBF9895C3413)
Complete name : E:\II Golden Magic 21 century.mkv
Format : Matroska
Format version : Version 4 / Version 2
File size : 3.51 GiB
Duration : 34 min 45 s
Overall bit rate : 14.4 Mb/s
Encoded date : UTC 2017-01-08 09:17:24
Writing application : TMPGEnc MPEG Smart Renderer 5 Version 5.0.7.9
Writing library : TMPGEnc MPEG Smart Renderer 5 Version 5.0.7.9
Video
ID : 1
Format : AVC
Format/Info : Advanced Video Codec
Format profile : Main@L4
Format settings, CABAC : Yes
Format settings, ReFrames : 4 frames
Format settings, GOP : M=1, N=32
Codec ID : V_MPEG4/ISO/AVC
Duration : 34 min 45 s
Bit rate : 14.0 Mb/s
Width : 1 920 pixels
Height : 1 080 pixels
Display aspect ratio : 16:9
Frame rate mode : Constant
Frame rate : 25.000 FPS
Standard : Component
Color space : YUV
Chroma subsampling : 4:2:0
Bit depth : 8 bits
Scan type : Interlaced
Scan type, store method : Separated fields
Scan order : Top Field First
Bits/(Pixel*Frame) : 0.269
Stream size : 3.39 GiB (97%)
Default : Yes
Forced : No
Color range : Limited
Color primaries : BT.709
Transfer characteristics : BT.709
Matrix coefficients : BT.709
Audio
ID : 2
Format : MPEG Audio
Format version : Version 1
Format profile : Layer 2
Codec ID : A_MPEG/L2
Codec ID/Hint : MP2
Duration : 34 min 45 s
Bit rate mode : Constant
Bit rate : 192 kb/s
Channel(s) : 2 channels
Sampling rate : 48.0 kHz
Compression mode : Lossy
Stream size : 47.7 MiB (1%)
Language : Russian
Default : Yes
Forced : No
Menu

Скриншоты


[www.cybertorrent.ru].t2990.torrent 
Торрент: Зарегистрирован [ 2018-02-16 14:35 ] · F17BF07E8F66B24EEDA935C337FF73833D8189A8

Скачать .torrent

Скачать

18 KB

Статус: проверено
Скачан: 0 раз
Размер: 3,51 GB
Профиль [ЛС]
Показать сообщения:    

Текущее время: 18-Дек 11:07

Часовой пояс: UTC ± 0



Вы не можете начинать темы
Вы не можете отвечать на сообщения
Вы не можете редактировать свои сообщения
Вы не можете удалять свои сообщения
Вы не можете голосовать в опросах
Вы не можете прикреплять файлы к сообщениям
Вы можете скачивать файлы
Torrents24.ru открытый BitTorrent Torrents24.pl открытый BitTorrent CyberTorrent.ru открытый BitTorrent BtList.ru рейтинг BitTorrent трекеров Яндекс.Метрика