BitTorrent клиенты



Займёмся любовью (Денис Евстигнеев) [2002, Россия, драма, комедия, DVD5] Original Rus

Ответить на тему
 
Автор Сообщение

Ангел ®

Пол: Не указан

Стаж: 1 год

Сообщений: 954

Создавать темы 08-Фев-2018 15:44

[Цитировать]

Займёмся любовью
Страна: Россия
Жанр: драма, комедия
Год выпуска: 2002
Продолжительность: 01:20:33
Перевод: Не требуется
Субтитры: английские
Оригинальная аудиодорожка: русская
Режиссер: Денис Евстигнеев
В ролях: Кирилл Малов, Евгений Цыганов, Ульяна Лукина, Андрей Новиков, Ева Коломиец, Антонина Комиссарова, Ольга Левкова, Галина Солодовникова, Евгений Князев, Федор Добронравов
Описание: …В семнадцать лет все говорят и думают о сексе. На самом же деле ждут любви, — той самой — первой, большой и настоящей. В семнадцать лет пишут письма по электронной почте с признанием в любви и страдают оттого, что их принимают за вирус. Влюбляются в голос незнакомки и уводят любимых девушек с их собственной свадьбы.
Бывает, что семнадцатилетним «офигительно не везет» и девушки не хотят влюбляться в них, потому что окружающим, да и самим себе они кажутся неинтересными и «несексуальными». Но первая любовь приходит к ним так же неожиданно и неизбежно, как и к их ровесникам много поколений назад.
Дополнительные материалы: "Пинг-понг" - Мангол, Фильмографии, Смотрите на DVD, Ролик "Total DVD"
Меню: есть, анимированное
Тип релиза: DVD5
Контейнер: DVD-Video
Видео: PAL 4:3 (720x576(0.473)) MPEG Video, 25,000 кадр/сек, 4902 Кбит/сек
Аудио: Russian (Dolby AC-3, 6 ch) 384 Кбит/сек, 48.0 КГц

MediaInfo

Общее
Полное имя : ZAIMEMSJA_LUBOVJU\VIDEO_TS\VTS_01_1.VOB
Формат : MPEG-PS
Размер файла : 1024 Мбайт
Продолжительность : 26 м. 32 с.
Режим общего битрейта : Переменный
Общий поток : 5393 Кбит/сек
Видео
Идентификатор : 224 (0xE0)
Формат : MPEG Video
Версия формата : Version 2
Профиль формата : Main@Main
Параметр BVOP формата : Да
Параметр матрицы формата : Выборочная
Параметр GOP формата : M=3, N=15
Структура изображения : Frame
Продолжительность : 26 м. 32 с.
Вид битрейта : Переменный
Битрейт : 4902 Кбит/сек
Максимальный битрейт : 8500 Кбит/сек
Ширина : 720 пикселей
Высота : 576 пикселей
Соотношение сторон : 4:3
Частота кадров : 25,000 кадров/сек
Стандарт вещания : PAL
Цветовое пространство : YUV
Субдискретизация насыщенности : 4:2:0
Битовая глубина : 8 бит
Тип развёртки : Чересстрочная
Порядок развёртки : Верхнее поле первое
Метод сжатия : С потерями
Бит/(Пиксели*Кадры) : 0.473
Временной код первого кадра : 00:00:15:20
Оригинал временного кода : Group of pictures header
GOP, открыто/закрыто : Открыто
GOP, открыто/закрыто на первом кадре : Закрыто
Размер потока : 930 Мбайт (91%)
Аудио
Идентификатор : 189 (0xBD)-128 (0x80)
Формат : AC-3
Формат/Информация : Audio Coding 3
Параметр Endianness формата : Big
Режим смешивания : DVD-Video
Продолжительность : 26 м. 26 с.
Вид битрейта : Постоянный
Битрейт : 384 Кбит/сек
Каналы : 6 каналов
Расположение каналов : Front: L C R, Side: L R, LFE
Частота : 48,0 КГц
Частота кадров : 31,250 кадров/сек (1536 spf)
Битовая глубина : 16 бит
Метод сжатия : С потерями
Задержка видео : 5 с. 400 мс.
Размер потока : 72,6 Мбайт (7%)
ServiceKind/String : Complete Main
Текст
Идентификатор : 189 (0xBD)-32 (0x20)
Формат : RLE
Формат/Информация : Run-length encoding
Режим смешивания : DVD-Video
Продолжительность : 26 м. 30 с.

Скриншоты меню

Скриншоты

[Профиль] [ЛС]
Показать сообщения:    
Ответить на тему

Текущее время: 21-Фев 23:33

Часовой пояс: UTC + 3



Вы не можете начинать темы
Вы не можете отвечать на сообщения
Вы не можете редактировать свои сообщения
Вы не можете удалять свои сообщения
Вы не можете голосовать в опросах
Вы не можете прикреплять файлы к сообщениям
Вы можете скачивать файлы