Статистика раздачи
Размер:  596 MB   |    Зарегистрирован:  4 месяца 4 дня   |    Скачан:  0 раз

Полного источника не было: Никогда

 
   
 
 

Volga ®

Пол:
Не указан
Стаж:
4 месяца 5 дней
Сообщений:
92

Мастер - Лего Ниндзяго
The Master - A Lego Ninjago Short
Год выпуска: 2016
Страна: США
Жанр: короткометражный анимационный фильм
Продолжительность: 00:05:18
Перевод:
Профессиональный (Дублированный)
Одноголосый закадровый - =Rider=
русские субтитры: есть-Режиссёр: Джон Сондерс : Jon Saunders
Роли озвучивали: Джеки Чан, Эбби Джейкобсон, Джастин Теру-Описание: Сможет ли мастер Ву справиться с назойливой курицей, которая ему постоянно мешает!?- релиз: -За озвучку большое спасибо Александру =Rider= Райдеру!
За русские субтитры большое спасибо SergeZuich!
Работа с Remux'ом и звуком -Azureus--Качество: BDRemux 1080p
Формат: MKV
Видео кодек: AVC
Аудио кодек: AC3
Видео: 1920x1080, 23,976 fps, ~13,8 Мbps avg, 0.277 bit/pixel
Аудио #1: [RUS] 48 kHz, AC3 Dolby Digital, 3/2 (L,C,R,l,r) + LFE ch, ~640 kbps avg - DUB
Аудио #2: [RUS] 48 kHz, AC3 Dolby Digital, 3/2 (L,C,R,l,r) + LFE ch, ~640 kbps avg - VO
Аудио #3: [ENG] 48 kHz, AC3 Dolby Digital, 3/2 (L,C,R,l,r) + LFE ch, ~640 kbps avg
субтитры: русские, английские

MediaInfo

Общее
Уникальный идентификатор : 203710535659889223127460056578221083528 (0x994138D904FC8E298E020B77426F0B88)
Полное имя : D:\short\The Master - A Lego Ninjago Short.2016.BDRemux 1080p.mkv
Формат : Matroska
Версия формата : Version 4 / Version 2
Размер файла : 596 Мбайт
Продолжительность : 5 м. 18 с.
Режим общего битрейта : Переменный
Общий поток : 15,7 Мбит/сек
Название фильма : The Master - A Lego Ninjago Short.2016.BDRemux 1080p -Azureus-
Дата кодирования : UTC 2017-03-22 00:02:51
Программа кодирования : mkvmerge v9.4.0 ('Knurl') 64bit
Библиотека кодирования : libebml v1.3.4 + libmatroska v1.4.5
Видео
Идентификатор : 1
Формат : AVC
Формат/Информация : Advanced Video Codec
Профиль формата : High@L4
Параметр CABAC формата : Да
Параметр ReFrames формата : 2 кадра
Идентификатор кодека : V_MPEG4/ISO/AVC
Продолжительность : 5 м. 18 с.
Вид битрейта : Переменный
Битрейт : 13,8 Мбит/сек
Ширина : 1920 пикселей
Высота : 1080 пикселей
Соотношение сторон : 16:9
Режим частоты кадров : Постоянный
Частота кадров : 23,976 (24000/1001) кадра/сек
Цветовое пространство : YUV
Субдискретизация насыщенности : 4:2:0
Битовая глубина : 8 бит
Тип развёртки : Прогрессивная
Бит/(Пиксели*Кадры) : 0.277
Размер потока : 523 Мбайт (88%)
Язык : English
Default : Да
Forced : Нет
Аудио #1
Идентификатор : 2
Формат : AC-3
Формат/Информация : Audio Coding 3
Расширение режима : CM (complete main)
Параметр Endianness формата : Big
Идентификатор кодека : A_AC3
Продолжительность : 5 м. 18 с.
Вид битрейта : Постоянный
Битрейт : 640 Кбит/сек
Каналы : 6 каналов
Расположение каналов : Front: L C R, Side: L R, LFE
Частота : 48,0 КГц
Частота кадров : 31,250 кадров/сек (1536 spf)
Метод сжатия : С потерями
Размер потока : 24,3 Мбайт (4%)
Заголовок : DUB
Язык : Russian
Default : Да
Forced : Нет
Аудио #2
Идентификатор : 3
Формат : AC-3
Формат/Информация : Audio Coding 3
Расширение режима : CM (complete main)
Параметр Endianness формата : Big
Идентификатор кодека : A_AC3
Продолжительность : 5 м. 18 с.
Вид битрейта : Постоянный
Битрейт : 640 Кбит/сек
Каналы : 6 каналов
Расположение каналов : Front: L C R, Side: L R, LFE
Частота : 48,0 КГц
Частота кадров : 31,250 кадров/сек (1536 spf)
Метод сжатия : С потерями
Размер потока : 24,3 Мбайт (4%)
Заголовок : VO =Rider=
Язык : Russian
Default : Нет
Forced : Нет
Аудио #3
Идентификатор : 4
Формат : AC-3
Формат/Информация : Audio Coding 3
Расширение режима : CM (complete main)
Параметр Endianness формата : Big
Идентификатор кодека : A_AC3
Продолжительность : 5 м. 18 с.
Вид битрейта : Постоянный
Битрейт : 640 Кбит/сек
Каналы : 6 каналов
Расположение каналов : Front: L C R, Side: L R, LFE
Частота : 48,0 КГц
Частота кадров : 31,250 кадров/сек (1536 spf)
Метод сжатия : С потерями
Размер потока : 24,3 Мбайт (4%)
Заголовок : ENG
Язык : English
Default : Нет
Forced : Нет
Текст #1
Идентификатор : 5
Формат : UTF-8
Идентификатор кодека : S_TEXT/UTF8
Идентификатор кодека/Информация : UTF-8 Plain Text
Продолжительность : 4 м. 59 с.
Битрейт : 67 бит/сек
Count of elements : 76
Размер потока : 2,47 Кбайт (0%)
Заголовок : Rus Sub - full
Язык : Russian
Default : Нет
Forced : Нет
Текст #2
Идентификатор : 6
Формат : UTF-8
Идентификатор кодека : S_TEXT/UTF8
Идентификатор кодека/Информация : UTF-8 Plain Text
Продолжительность : 4 м. 59 с.
Битрейт : 91 бит/сек
Count of elements : 72
Размер потока : 3,36 Кбайт (0%)
Заголовок : Rus Sub - SergeZuich
Язык : Russian
Default : Нет
Forced : Нет
Текст #3
Идентификатор : 7
Формат : UTF-8
Идентификатор кодека : S_TEXT/UTF8
Идентификатор кодека/Информация : UTF-8 Plain Text
Продолжительность : 2 м. 24 с.
Битрейт : 11 бит/сек
Count of elements : 9
Размер потока : 215 байт (0%)
Заголовок : Rus Sub - forced
Язык : Russian
Default : Нет
Forced : Нет
Текст #4
Идентификатор : 8
Формат : UTF-8
Идентификатор кодека : S_TEXT/UTF8
Идентификатор кодека/Информация : UTF-8 Plain Text
Продолжительность : 4 м. 59 с.
Битрейт : 63 бит/сек
Count of elements : 98
Размер потока : 2,31 Кбайт (0%)
Заголовок : Ebg Sub
Язык : English
Default : Нет
Forced : Нет
[www.cybertorrent.ru].t2988.torrent 
Торрент: Зарегистрирован [ 2018-02-16 14:35 ] · 669F8FC9A850AAC5C3B0EFEBE88F922F0A2298E4

Скачать .torrent

Скачать

12 KB

Статус: проверено
Скачан: 0 раз
Размер: 596 MB
Профиль [ЛС]
Показать сообщения:    

Текущее время: 21-Июн 07:59

Часовой пояс: UTC ± 0



Вы не можете начинать темы
Вы не можете отвечать на сообщения
Вы не можете редактировать свои сообщения
Вы не можете удалять свои сообщения
Вы не можете голосовать в опросах
Вы не можете прикреплять файлы к сообщениям
Вы можете скачивать файлы