Статистика раздачи
Размер:  1,72 GB   |    Зарегистрирован:  8 месяцев 6 дней   |    Скачан:  0 раз

Полного источника не было: Никогда

Личеров:  5  [  0 KB/s  ]  
 
   
 
 

deltacatsplus ®

Пол:
Не указан
Стаж:
8 месяцев 7 дней
Сообщений:
202

Новогодний огонек. Остаемся зимовать
Дата/Год выпуска: 2017
Страна: Украина
Жанр: Pop
Продолжительность: 02:21:47
Перевод: Не требуется
Русские субтитры: нет
Оригинальная аудиодорожка: русский
Телеканал: Iнтер/Iнтер+Описание: В новогоднюю ночь в эфире телеканала "Интер" зажжется праздничный новогодний огонек с любимыми звездами, песнями, премьерами и поздравлениями - "Остаемся зимовать". За кулисами и на сцене ночного клуба встречаются разные артисты: Ирина Билык, Макс Барских, Наталья Могилевская, Monatik, Александр Пономарев, Никита Алексеев, Ани Лорак, "ТІК", Loboda, "Потап и Настя", Ольга Полякова, "Время и Стекло", Олег Винник, Real О, "НеАнгелы", Надежда Мейхер, Виталий Козловский, Злата Огневич, Виктор Павлик, Openkid's, El Кравчук, Наталья Бучинская, Дмитрий Коляденко, Мария Яремчук, Аслан Ахмадов, Мила Нитич, Сергей Гладыр, Светлана Тарабарова, Kadnay, Иван Березовский, Gadar, группы "Авиатор" и Emotion. Ведущий новогодней вечеринки - Андрей Доманский.Сэмпл: https://www.sendspace.com/file/m3wqau
качество: SATRip
формат: AVI
Видео: Xvid 720x400 (16:9) ~1536kbps 25fps
Аудио: MP3 192kbps 48kHz 2ch

MediaInfo

General
Complete name : J:\Мои раздачи\Остаёмся зимовать.avi
Format : AVI
Format/Info : Audio Video Interleave
File size : 1.72 GiB
Duration : 2h 21mn
Overall bit rate : 1 737 Kbps
Video
ID : 0
Format : MPEG-4 Visual
Format profile : Advanced Simple@L5
Format settings, BVOP : Yes
Format settings, QPel : No
Format settings, GMC : No warppoints
Format settings, Matrix : Default (H.263)
Codec ID : XVID
Codec ID/Hint : XviD
Duration : 2h 21mn
Bit rate : 1 535 Kbps
Width : 720 pixels
Height : 400 pixels
Display aspect ratio : 16:9
Frame rate : 25.000 fps
Color space : YUV
Chroma subsampling : 4:2:0
Bit depth : 8 bits
Scan type : Progressive
Compression mode : Lossy
Bits/(Pixel*Frame) : 0.213
Stream size : 1.52 GiB (88%)
Writing library : XviD 64
Audio
ID : 1
Format : MPEG Audio
Format version : Version 1
Format profile : Layer 3
Mode : Joint stereo
Codec ID : 55
Codec ID/Hint : MP3
Duration : 2h 21mn
Bit rate mode : Constant
Bit rate : 192 Kbps
Channel(s) : 2 channels
Sampling rate : 48.0 KHz
Compression mode : Lossy
Stream size : 195 MiB (11%)
Alignment : Split accross interleaves
Interleave, duration : 40 ms (1.00 video frame)
Interleave, preload duration : 500 ms
Writing library : LAME3.98.2

Скриншоты

[www.cybertorrent.ru].t2973.torrent 
Торрент: Зарегистрирован [ 2018-02-16 14:35 ] · 9C714ACF7ABD8797E6308EC90BD42F22B94B6F1D

Скачать .torrent

Скачать

18 KB

Статус: проверено
Скачан: 0 раз
Размер: 1,72 GB
Профиль [ЛС]
Показать сообщения:    

Текущее время: 22-Окт 23:12

Часовой пояс: UTC ± 0



Вы не можете начинать темы
Вы не можете отвечать на сообщения
Вы не можете редактировать свои сообщения
Вы не можете удалять свои сообщения
Вы не можете голосовать в опросах
Вы не можете прикреплять файлы к сообщениям
Вы можете скачивать файлы
Torrents24.ru открытый BitTorrent Torrents24.pl открытый BitTorrent CyberTorrent.ru открытый BitTorrent BtList.ru рейтинг BitTorrent трекеров Яндекс.Метрика