Статистика раздачи
Размер:  6,64 GB   |    Зарегистрирован:  9 месяцев 24 дня   |    Скачан:  0 раз

Полного источника не было: Никогда

Личеров:  6  [  0 KB/s  ]  
 
   
 
 

Volga ®

Пол:
Не указан
Стаж:
9 месяцев 25 дней
Сообщений:
92

Цирк дю Солей: Турук - первый полет / Cirque du Soleil: Toruk - Le premier envol / Toruk - Der erste Flug
Дата/Год выпуска: 2016
Страна: Канада
Жанр: Цирк, фэнтези
Продолжительность: 01:19:59
Перевод: Не требуется
Русские субтитры: нет
Оригинальная аудиодорожка: французский, немецкий
Телеканал: arte HD
Описание: Новое фееричное шоу от Cirque du Soleil по мотивам фантастического фильма Джеймса Кэмерона "Aватар",
в котором живут фантастические и причудливые существа. Действие происходит за тысячи лет до событий, показанных в
знаменитом художественном фильме. Сюжет строится вокруг первого полета представителя народа На'ви на леоноптериксе,
который и послужил основой для легенды известной всем аборигенам.
Доп. информация: файл предоставил Papa Karlo.
качество: HDTVRip
формат: MKV
Видео: H.264, 1280x720, 50.000 fps, 11000 Kbps
Аудио: (французский) MP2, 2.0 ch, 48000 Hz, 192 Kbps
Аудио 2: (немецкий) AC3, 5.1 ch, 48000 Hz, 448 Kbps

MediaInfo

General
Unique ID : 158031804746917722531510854869899171378 (0x76E3D188BDE7DE4DA3A920F304CA5632)
Complete name : E:\Cirque du Soleil (Toruk - Le premier envol) (Toruk - Der erste Flug).mkv
Format : Matroska
Format version : Version 4 / Version 2
File size : 6.64 GiB
Duration : 1 h 19 min
Overall bit rate : 11.9 Mb/s
Encoded date : UTC 2016-12-28 14:41:14
Writing application : TMPGEnc MPEG Smart Renderer 4 Version 4.2.4.68
Writing library : TMPGEnc MPEG Smart Renderer 4 Version 4.2.4.68
Video
ID : 1
Format : AVC
Format/Info : Advanced Video Codec
Format profile : High@L4
Format settings, CABAC : Yes
Format settings, ReFrames : 4 frames
Codec ID : V_MPEG4/ISO/AVC
Duration : 1 h 19 min
Bit rate : 11.0 Mb/s
Width : 1 280 pixels
Height : 720 pixels
Display aspect ratio : 16:9
Frame rate mode : Constant
Frame rate : 50.000 FPS
Standard : Component
Color space : YUV
Chroma subsampling : 4:2:0
Bit depth : 8 bits
Scan type : Progressive
Bits/(Pixel*Frame) : 0.239
Stream size : 6.15 GiB (93%)
Default : Yes
Forced : No
Color range : Limited
Color primaries : BT.709
Transfer characteristics : BT.709
Matrix coefficients : BT.709
Audio #1
ID : 2
Format : MPEG Audio
Format version : Version 1
Format profile : Layer 2
Codec ID : A_MPEG/L2
Codec ID/Hint : MP2
Duration : 1 h 19 min
Bit rate mode : Constant
Bit rate : 192 kb/s
Channel(s) : 2 channels
Sampling rate : 48.0 kHz
Compression mode : Lossy
Stream size : 110 MiB (2%)
Default : Yes
Forced : No
Audio #2
ID : 3
Format : AC-3
Format/Info : Audio Coding 3
Mode extension : CM (complete main)
Format settings, Endianness : Big
Codec ID : A_AC3
Duration : 1 h 19 min
Bit rate mode : Constant
Bit rate : 448 kb/s
Channel(s) : 6 channels
Channel positions : Front: L C R, Side: L R, LFE
Sampling rate : 48.0 kHz
Frame rate : 31.250 FPS (1536 spf)
Bit depth : 16 bits
Compression mode : Lossy
Stream size : 256 MiB (4%)
Default : No
Forced : No

Скриншоты


[www.cybertorrent.ru].t2965.torrent 
Торрент: Зарегистрирован [ 2018-02-16 14:35 ] · 3D61B42EC1278C03C7B338437809B18F00BEDFE9

Скачать .torrent

Скачать

34 KB

Статус: проверено
Скачан: 0 раз
Размер: 6,64 GB
Профиль [ЛС]
Показать сообщения:    

Текущее время: 12-Дек 16:52

Часовой пояс: UTC ± 0



Вы не можете начинать темы
Вы не можете отвечать на сообщения
Вы не можете редактировать свои сообщения
Вы не можете удалять свои сообщения
Вы не можете голосовать в опросах
Вы не можете прикреплять файлы к сообщениям
Вы можете скачивать файлы
Torrents24.ru открытый BitTorrent Torrents24.pl открытый BitTorrent CyberTorrent.ru открытый BitTorrent BtList.ru рейтинг BitTorrent трекеров Яндекс.Метрика