Статистика раздачи
Размер:  3,29 GB   |    Зарегистрирован:  6 месяцев 3 дня   |    Скачан:  0 раз

Полного источника не было: Никогда

 
   
 
 

0H0 ®

Пол:
Не указан
Стаж:
6 месяцев 5 дней
Сообщений:
156

Чип и Дейл спешат на помощь / Chip and Dale Rescue Rangers
Страна: США
Жанр: Приключения, комедия
Продолжительность серии: ~00:22:00
Год выпуска: 1989
Перевод: Профессиональный (дублированный) ТСК (Телевизионная Студия Кинопрограмм)
Русские субтитры: нет
Режиссёр: Джон Кимболл, Роб Замбони
Роли озвучивали: Кори Бертон, Питер Каллен, Джим Каммингс, Тресс МакНилл, Роб Полсен, Дэнни Гэнс и другие
Описание: Приключенческий мультсериал, созданный студией Уолта Диснея. Авторы идеи — Алан Заслов и Тэд Стоун. Главными героями мультсериала являются переработанные классические диснеевские персонажи — антропоморфные бурундуки Чип и Дейл, а также трое их друзей — мышка-изобретательница Гайка, крыса Рокфор и его друг, муха по имени Вжик — вместе образующие «Команду Спасателей» (англ. Rescue Rangers).
Впервые данная концепция была показана в США 27 августа 1988 года в превью-эпизоде «Catteries Not Included». Собственно сам мультсериал в США начал выходить в эфир с 4 марта 1989 года на канале «The Disney Channel» обычно в паре с «Утиными историями». Последняя серия была показана 19 ноября 1990 года. Начиная с 18 сентября 1990 года в США транслировался повтор шоу. Кроме того, повторы выходили до 3 сентября 1993 года в рамках программы «The Disney Afternoon».
В общей сложности было показано 65 серий, пять из которых представляют собой разделенный на несколько частей полнометражный мультфильм «Rescue Rangers: To The Rescue», которые выходили с порядковым номером серий с 14 по 18.
Список серий:
01. To The Rescue. Part 1
02. To The Rescue. Part 2
03. To The Rescue. Part 3
04. To The Rescue. Part 4
05. To The Rescue. Part 5
06. Catteries Not Included
07. Three Men and a Booby
08. The Carpetsnaggers
Доп. информация: Раздача ведётся путём добавления серий! (от БАТИ)
Ссылка на предыдущие и альтернативные раздачи: http://cybertorrent.ru/tracker.php?nm=Chip%20Dale%20Rescue
Семпл: http://multi-up.com/1131257
Качество: WEB-DLRip
Формат: AVI
Видео: 720x544 (1.32:1), 23.976 fps, XviD build 73, 2351 kbps avg, 0.25 bit/pixel
Аудио: 48 kHz, AC3 Dolby Digital, 2/0 (L,R) ch, 192 kbps
Субтитры: нет

Подробные технические данные

Общее
Полное имя : D:\Чип и Дейл спешат на помощь\01. To The Rescue. Part 1.avi
Формат : AVI
Формат/Информация : Audio Video Interleave
Размер файла : 417 Мбайт
Продолжительность : 22 м.
Общий поток : 2553 Кбит/сек
Программа кодирования : VirtualDubMod 1.5.10.3 | www.virtualdub-fr.org || (build 2550/release)
Библиотека кодирования : VirtualDubMod build 2550/release
Видео
Идентификатор : 0
Формат : MPEG-4 Visual
Профиль формата : Advanced Simple@L5
Параметр BVOP формата : 1
Параметр QPel формата : Нет
Параметр GMC формата : Без точки перехода
Параметр матрицы формата : Выборочная
Идентификатор кодека : XVID
Идентификатор кодека/Подсказка : XviD
Продолжительность : 22 м.
Битрейт : 2351 Кбит/сек
Ширина : 720 пикселей
Высота : 544 пикселя
Соотношение сторон : 4:3
Частота кадров : 23,976 (23976/1000) кадра/сек
Цветовое пространство : YUV
Субдискретизация насыщенности : 4:2:0
Битовая глубина : 8 бит
Тип развёртки : Прогрессивная
Метод сжатия : С потерями
Бит/(Пиксели*Кадры) : 0.250
Размер потока : 384 Мбайт (92%)
Библиотека кодирования : XviD 73
Аудио
Идентификатор : 1
Формат : AC-3
Формат/Информация : Audio Coding 3
Расширение режима : CM (complete main)
Параметр Endianness формата : Big
Идентификатор кодека : 2000
Продолжительность : 22 м.
Вид битрейта : Постоянный
Битрейт : 192 Кбит/сек
Каналы : 2 канала
Расположение каналов : Front: L R
Частота : 48,0 КГц
Частота кадров : 31,250 кадров/сек (1536 spf)
Метод сжатия : С потерями
Размер потока : 31,3 Мбайт (8%)
Выравнивание : Разделение по промежуткам
Продолжительность промежутка : 42 мс. (1,00 видеокадр)
Время предзагрузки промежутка : 500 мс.
[www.cybertorrent.ru].t2943.torrent 
Торрент: Зарегистрирован [ 2018-02-16 14:35 ] · 1CB47088DCC023F54794D185D5846123A27F441A

Скачать .torrent

Скачать

17 KB

Статус: проверено
Скачан: 0 раз
Размер: 3,29 GB
Профиль [ЛС]
Показать сообщения:    

Текущее время: 20-Авг 12:16

Часовой пояс: UTC ± 0



Вы не можете начинать темы
Вы не можете отвечать на сообщения
Вы не можете редактировать свои сообщения
Вы не можете удалять свои сообщения
Вы не можете голосовать в опросах
Вы не можете прикреплять файлы к сообщениям
Вы можете скачивать файлы
Torrents24.ru открытый BitTorrent Torrents24.pl открытый BitTorrent CyberTorrent.ru открытый BitTorrent BtList.ru рейтинг BitTorrent трекеров Яндекс.Метрика