Статистика раздачи
Размер:  3,03 GB   |    Зарегистрирован:  6 месяцев 3 дня   |    Скачан:  0 раз

Полного источника не было: Никогда

 
   
 
 

lom ®

Пол:
Не указан
Стаж:
6 месяцев 5 дней
Сообщений:
165

Наруто: Последний фильм / The Last: Naruto the Movie
Страна: Япония
Год выпуска: 2014
Жанр: приключения, комедия, боевые искусства, сёнэн, драма
Тип: Movie
Продолжительность: полнометражный фильм, 01:52:05
Режиссер: Кобаяси Цунэо / Kobayashi Tsuneo / 小林常夫
Автор оригинала: Кисимото Масаси / Kishimoto Masashi / 岸本斉史
Снято по манге: Naruto
Студия:
Описание: Маленькая Ханаби похищена инопланетным злодеем, который вдобавок хочет уничтожить Землю. Наруто просто обязан спасти младшую сестру Хинаты — девушки, в которую он влюблён. Но сможет ли легендарный ниндзя победить самого мощного врага, если перед битвой он потеряет свои суперспособности?
Информационные ссылки: AniDB || MyAnimeList || World Art
Качество: BDRip [by rs.bandito] Исходник - Blu-Ray Remux (1080p)
Тип релиза: Без хардсаба
Формат видео: AVI
Совместимость с бытовыми плеерами: Да
Видео: 720x384 (1.88:1), 23.976 fps, XviD build 73 ~1986 kbps avg, 0.300 bit/pixel
Аудио #1: Rus- AC3 Dolby Digital, 3/2 (L,C,R,l,r) + LFE ch, ~384 kbps | дубляж от Reanimedia
Аудио #2: Jap- AC3 Dolby Digital, 3/2 (L,C,R,l,r) + LFE ch, ~384 kbps
Субтитры: *srt, ext - русские (2 вида); английские

Бонусы в раздаче:

* Booklet & Scans
* Brave Stories
Перевод отсутствует, только японская дорожка.
Video: 720x528 (1.36:1), 23.976 fps, XviD build 73 ~1900 kbps avg, 0.21 bit/pixel
Audio: 48 kHz, AC3 Dolby Digital, 2/0 (L,R) ch, ~192 kbps


* Заставки Menu
Video: 720x400 (1.80:1), 23.976 fps, XviD build 73 ~1900 kbps avg, 0.28 bit/pixel
Audio: 48 kHz, AC3 Dolby Digital, 3/2 (L,C,R,l,r) + LFE ch, ~448 kbps


* OP & ED
Video: 720x384 (1.88:1), 23.976 fps, XviD build 73 ~1900 kbps avg, 0.29 bit/pixel
Audio: 48 kHz, AC3 Dolby Digital, 3/2 (L,C,R,l,r) + LFE ch, ~448 kbps (ED)
Audio: 48 kHz, AC3 Dolby Digital, 2/0 (L,R) ch, ~192 kbps (OP)


* Teaser
Перевод отсутствует, только японская дорожка.
Video: 720x384 (1.88:1), 23.976 fps, XviD build 73 ~1900 kbps avg, 0.29 bit/pixel (Teaser 01, Teaser 02)
Video: 720x400 (1.80:1), 23.976 fps, XviD build 73 ~1900 kbps avg, 0.28 bit/pixel (Teaser 03, Teaser 04)
Audio: 48 kHz, AC3 Dolby Digital, 2/0 (L,R) ch, ~192 kbps


* Trailer
Перевод отсутствует, только японская дорожка.
Video: 720x384 (1.88:1), 23.976 fps, XviD build 73 ~1900 kbps avg, 0.29 bit/pixel
Audio: 48 kHz, AC3 Dolby Digital, 2/0 (L,R) ch, ~192 kbps


Подробные тех. данные

Общее
Полное имя : The Last - Naruto the Movie / The Last - Naruto the Movie.avi
Формат : AVI
Формат/Информация : Audio Video Interleave
Профиль формата : OpenDML
Размер файла : 2,17 Гбайт
Продолжительность : 1 ч. 52 м.
Общий поток : 2772 Кбит/сек
Название фильма : The Last: Naruto the Movie
Программа кодирования : VirtualDubMod 1.5.10.3 | www.virtualdub-fr.org || (build 2550/release)
Библиотека кодирования : VirtualDubMod build 2550/release
Видео
Идентификатор : 0
Формат : MPEG-4 Visual
Профиль формата : Advanced Simple@L5
Параметр BVOP формата : 1
Параметр QPel формата : Нет
Параметр GMC формата : Без точки перехода
Параметр матрицы формата : Выборочная
Идентификатор кодека : XVID
Идентификатор кодека/Подсказка : XviD
Продолжительность : 1 ч. 52 м.
Битрейт : 1986 Кбит/сек
Ширина : 720 пикс.
Высота : 384 пикс.
Соотношение сторон : 1,875
Частота кадров : 23,976 кадр/сек
Цветовое пространство : YUV
Подвыборка цветности : 4:2:0
Битовая глубина : 8 бит
Тип развёртки : Прогрессивная
Метод сжатия : С потерями
Бит/(Пиксели*Кадры) : 0.300
Размер потока : 1,55 Гбайт (72%)
Заголовок : The Last: Naruto the Movie (2014) - Encoded by Miheleniya
Библиотека кодирования : XviD 73
Аудио #1
Идентификатор : 1
Формат : AC-3
Формат/Информация : Audio Coding 3
Расширение режима : CM (complete main)
Идентификатор кодека : 2000
Продолжительность : 1 ч. 52 м.
Вид битрейта : Постоянный
Битрейт : 384 Кбит/сек
Канал(ы) : 6 канала(ов)
Расположение каналов : Front: L C R, Side: L R, LFE
Частота : 48,0 КГц
Битовая глубина : 16 бит
Метод сжатия : С потерями
Задержка видео : 957 мс.
Размер потока : 308 Мбайт (14%)
Выравнивание : Разделение по промежуткам
Продолжительность промежутка : 42 мс. (1,00 видеокадр)
Время предзагрузки промежутка : 500 ms
Заголовок : Russian (Reanimedia)
Аудио #2
Идентификатор : 2
Формат : AC-3
Формат/Информация : Audio Coding 3
Расширение режима : CM (complete main)
Идентификатор кодека : 2000
Продолжительность : 1 ч. 52 м.
Вид битрейта : Постоянный
Битрейт : 384 Кбит/сек
Канал(ы) : 6 канала(ов)
Расположение каналов : Front: L C R, Side: L R, LFE
Частота : 48,0 КГц
Битовая глубина : 16 бит
Метод сжатия : С потерями
Размер потока : 308 Мбайт (14%)
Выравнивание : Разделение по промежуткам
Продолжительность промежутка : 42 мс. (1,00 видеокадр)
Время предзагрузки промежутка : 500 ms
Заголовок : Japanese

Благодарности

Большое спасибо за исходники и помощь в создании релиза:
* CAYPOHHH за Blu-Ray Remux
* crazy_gringo за дорожку Reanimedia
* Mearas за все бонусы в раздаче и за русские субтитры от фансаб-Альянса Firegorn Team
* Immortel за синхронизацию субтитров и русской дорожки
* русские субтитры от фансаб-Альянса Firegorn Team:
Перевод, оформление: Redgar-firegorn
Редактор: Igorek1102
Лирика: Redgar-firegorn
Сверка с японским: Nucha
Спонсор перевода: Игорь Бывшев
[www.cybertorrent.ru].t2941.torrent 
Торрент: Зарегистрирован [ 2018-02-16 14:35 ] · 48D3C57953C960D8499AA0AD17242AD3B0209E77

Скачать .torrent

Скачать

20 KB

Статус: проверено
Скачан: 0 раз
Размер: 3,03 GB
Профиль [ЛС]
Показать сообщения:    

Текущее время: 20-Авг 12:16

Часовой пояс: UTC ± 0



Вы не можете начинать темы
Вы не можете отвечать на сообщения
Вы не можете редактировать свои сообщения
Вы не можете удалять свои сообщения
Вы не можете голосовать в опросах
Вы не можете прикреплять файлы к сообщениям
Вы можете скачивать файлы
Torrents24.ru открытый BitTorrent Torrents24.pl открытый BitTorrent CyberTorrent.ru открытый BitTorrent BtList.ru рейтинг BitTorrent трекеров Яндекс.Метрика