Статистика раздачи
Размер:  11,12 GB   |    Зарегистрирован:  9 месяцев 1 день   |    Скачан:  0 раз

Полного источника не было: Никогда

Личеров:  1  [  0 KB/s  ]  
 
   
 
 

DR_KTO ®

Пол:
Не указан
Стаж:
9 месяцев 2 дня
Сообщений:
105

Всё, что вы хотели знать, но боялись спросить (вып.51-88)
Дата/Год выпуска: 2014-2015
Страна: Россия
Жанр: Детская, познавательная
Продолжительность: 38 х 00:25:00
Перевод: Не требуется
Русские субтитры: нет
Режиссер: Антонио Реоли
Телеканал: Карусель
Описание: Хотите знать обо всём на свете? Эта интерактивная развлекательная программа весело и доступно расскажет юным зрителям о многих интересных событиях и вещах.
Ведущий программы — чудаковатый, продвинутый и знающий себе цену Всезнайка (Алеша Папович). Он прочёл миллион книг, посмотрел сто тысяч фильмов, избороздил весь Интернет и теперь ЗНАЕТ ВСЁ и с радостью готов делиться своими открытиями с маленькими зрителями.
Кроме того, ведущий часто берет интервью у специалистов, которые раскрывают зрителям суть того или иного явления, рассказывают об истории происхождения вещей и важных вехах развития человечества.
Доп. информация: Запись с канала "Карусель" ( https://www.karusel-tv.ru/announce/12280 ). Выпуски №№51-88. Краткие названия выпускам присвоены автором раздачи.
Сэмпл: http://multi-up.com/1130166
Ссылка на предыдущие и альтернативные раздачи: http://cybertorrent.ru/tracker.php?nm=%C2%F1%B8+%F7%F2%EE+%E2%FB+%...0%EE%F1%E8%F2%FC
Релиз:
качество: SATRip
формат: AVI
Видео: 640x480 (1.33:1), 25 fps, XviD build 64 ~1496 kbps avg, 0.20 bit/pixel
Аудио: 48 kHz, MPEG Layer 3, 2 ch, ~128.00 kbps avg

Список выпусков/серий

51 Лифт. Появление кино. Родители не дают помочь. Писк устриц (не с начала).avi
52 Генномодифицированные продукты. Налоги. Нашёл деньги. Запасы животных.avi
53 Суп. Ниндзя и самурай. Родители в тебя не верят. Паук и паутина.avi
54 Дед Мороз и Санта Клаус. Новый год в мире. Не сделал домашнее задание. Божьи коровки.avi
55 Физические упражнения. Энштейн-двоечник. Приземление кошки. Занизили оценку.avi
56 Тушение пожара. Знаки Зодиака. Развод родителей. Тараканы.avi
57 Паразиты. Первые очки. Твоя комната. Загар.avi
58 Самый зубастый. Школы. Прививки. Шум в ракушке.avi
59 Нездоровая пища. Праздники. В тебя влюбились девочки. Градусник.avi
60 Подготовка космонавтов. Системы измерения. Влюбилась не та. Разговор с попугаем.avi
61 Сила тяжести. Появление оценок. Друг совершил проступок. Хамелеон.avi
62 Свой блог. Рыцари Круглого стола. Стесняешься родителей. Скворечники.avi
63 Ручка для письма. Слон. Считают трусом. Усталость.avi
64 Штрих-код. Собачий спорт. Надоел питомец. Собаки и кошки - кто умнее.avi
65 Японская кухня. Почему руль справа. Смеются над именем. Супергеройские способности.avi
66 Диагноз. Случайные открытия. Плохо выглядишь. Смешные питомцы.avi
67 Ананас дома. Русская кухня. Вредные привычки. Калории.avi
68 Измеряем ум. Изобретатели-чудаки. Стеснительность. Невидимки.avi
69 Дрессировка собак. Изобретение велосипеда. Не справляешься с обязанностями. Редкие профессии.avi
70 Тигры и лигры. Каскадёры. Признание в любви. Исполнение желаний.avi
71 Собаки-гиганты. Лошади. Дуэль. Облака.avi
72 Экзотические фрукты. Сыр. Просят списать. Сколько лет дереву.avi
73 Ремонт машин. ПДД. Младший брат. Монстры под кроватью.avi
74 Как делают мыло. Нобелевская премия. Спор. Жизнь на Марсе.avi
75 Подковывание лошадей. Кошки. Признание в своих проступках. Философский камень.avi
76 Сенсорный экран. Интернет-магазины. Разболтал секрет. Почему молчат рыбы.avi
77 Фонтаны. Школьная форма. Обидное прозвище. Гномы.avi
78 Зачем едят тараканов. Подвиги собак. Замучила совесть. Дворняжки.avi
79 Солнечная батарея. Титаник. Не нрявится подарок. Перелёты птиц.avi
80 Кариес. Газировка. Варп-двигатель. Запрещают дружить. Сны.avi
81 Коптеры. Дирижабли. Выполнение обещаний. Луна.avi
82 Ум обезьян. Такси. Родители не выполнили обещание. Троянский конь.avi
83 Желе. Гладиаторы. Сплетни о тебе. Животные, которые растут всю жизнь
84 Левитация. Рим. Обвиняют в том, что не делал. Черепаха е её панцирь
85 Работа стилиста. Тушь для ресниц. Оскорбляют члена семьи. Парад планет
86 Строительный кран. Александр Македонский. Последнее слово в споре. Свечи в торте
87 Банковские карты. Защита денег. Как знакомиться. Дополненная реальность
88 Морские черепахи. Гении. Не возвращают вещь. Жужжание мух

MediaInfo

Полное имя : D:\01 РАЗДАЧИ ШОУ\Всё, что вы хотели знать - Вып.51-88\Всё_что_вы_хотели_знать_2\52 Генномодифицированные продукты. Налоги. Нашёл деньги. Запасы животных.avi
Формат : AVI
Формат/Информация : Audio Video Interleave
Размер файла : 288 Мбайт
Продолжительность : 24 м.
Общий поток : 1638 Кбит/сек
Программа кодирования : Lavf54.63.100
Видео
Идентификатор : 0
Формат : MPEG-4 Visual
Профиль формата : Advanced Simple@L5
Параметр BVOP формата : 2
Параметр QPel формата : Нет
Параметр GMC формата : Без точки перехода
Параметр матрицы формата : Default (H.263)
Идентификатор кодека : XVID
Идентификатор кодека/Подсказка : XviD
Продолжительность : 24 м.
Битрейт : 1497 Кбит/сек
Ширина : 640 пикселей
Высота : 480 пикселей
Соотношение сторон : 4:3
Частота кадров : 25,000 кадров/сек
Цветовое пространство : YUV
Субдискретизация насыщенности : 4:2:0
Битовая глубина : 8 бит
Тип развёртки : Прогрессивная
Метод сжатия : С потерями
Бит/(Пиксели*Кадры) : 0.195
Размер потока : 263 Мбайт (91%)
Библиотека кодирования : XviD 64
Аудио
Идентификатор : 1
Формат : MPEG Audio
Версия формата : Version 1
Профиль формата : Layer 3
Идентификатор кодека : 55
Идентификатор кодека/Подсказка : MP3
Продолжительность : 24 м.
Вид битрейта : Постоянный
Битрейт : 128 Кбит/сек
Каналы : 2 канала
Частота : 48,0 КГц
Метод сжатия : С потерями
Размер потока : 22,5 Мбайт (8%)
Выравнивание : Соединение по промежуткам
Продолжительность промежутка : 24 мс. (0,60 видеокадр)
Время предзагрузки промежутка : 24 мс.

Скриншоты

[www.cybertorrent.ru].t2930.torrent 
Торрент: Зарегистрирован [ 2018-02-16 14:35 ] · ECDC1D31B5939C595D0AE01AFE78A6065BFEACDC

Скачать .torrent

Скачать

62 KB

Статус: проверено
Скачан: 0 раз
Размер: 11,12 GB
Профиль [ЛС]
Показать сообщения:    

Текущее время: 18-Ноя 00:19

Часовой пояс: UTC ± 0



Вы не можете начинать темы
Вы не можете отвечать на сообщения
Вы не можете редактировать свои сообщения
Вы не можете удалять свои сообщения
Вы не можете голосовать в опросах
Вы не можете прикреплять файлы к сообщениям
Вы можете скачивать файлы
Torrents24.ru открытый BitTorrent Torrents24.pl открытый BitTorrent CyberTorrent.ru открытый BitTorrent BtList.ru рейтинг BitTorrent трекеров Яндекс.Метрика