Статистика раздачи
Размер:  3,02 GB   |    Зарегистрирован:  8 месяцев 3 дня   |    Скачан:  0 раз

Полного источника не было: Никогда

 
   
 
 

Zima ®

Пол:
Не указан
Стаж:
8 месяцев 4 дня
Сообщений:
42

Синдбад. Пираты семи штормов
Страна: Россия, Кинокомпания СТВ, Аним
Жанр: Мультипликация
Продолжительность: 01:17:31
Год выпуска: 2016
Перевод: Не требуется
Русские субтитры: нет-Режиссёр: Владлен Барбэ
Роли озвучивали: Андрей Лёвин, Катерина Шпица, Дмитрий Нагиев, Марина Лисовец, Диомид Виноградов, Юрий Стоянов, Андрей Кайков, Эдуард Радзюкевич, Игорь Лифанов, Илья Лыков-Описание: Синдбад, молодой веселый пират, не очень удачлив в пиратском промысле — за год ему и его команде не удалось захватить ни одного корабля. Но судьба улыбается Синдбаду: старик Антиох показывает ему старинную карту и предлагает плыть на остров Скелета, где хранятся сокровища. Синдбад не знает, что этот Антиох — волшебник, который преследует свои корыстные планы…
Да тут еще Солара, подруга Синдбада по детским играм, свалилась ему на голову! Неужели любовь? Нет, Синдбад так просто не сдается! Путь на остров Скелета лежит через Море Семи Штормов. Синдабада и его команду ждет сражение с Канатным Монстром и встреча со своим заклятым врагом пиратом Кесамом. Да и на острове не обойдется без приключений: Циклоп, Птица Рух и ее Птенчик уже давно ждут гостей.-Качество: WEB-DL 1080p
Формат: MKV
Видео: AVC, 1920x1038 (1.85:1), 24.000 fps, 5 087 Kbps (0.106 bit/pixel)
Аудио: AC-3, 48.0 KHz, 6 ch, 384 Kbps, CBR (Russian) [iTunes]
Субтитры: отсутствуют
Семпл: Забираем тут

Подробные технические данные

Общее
Уникальный идентификатор : 254191448173528119750794837728020789914 (0xBF3B7DFE7D602D879877498D8C19FA9A)
Полное имя : Синдбад Пираты семи штормов 2016 WEB-DL 1080p.mkv
Формат : Matroska
Версия формата : Version 2
Размер файла : 3,02 Гбайт
Продолжительность : 1 ч. 17 м.
Общий поток : 5582 Кбит/сек
Дата кодирования : UTC 2016-11-28 20:49:25
Программа кодирования : mkvmerge v8.3.0 ('Over the Horizon') 64bit
Библиотека кодирования : libebml v1.3.1 + libmatroska v1.4.2
Видео
Идентификатор : 1
Формат : AVC
Формат/Информация : Advanced Video Codec
Профиль формата : High@L4
Параметр CABAC формата : Да
Параметр ReFrames формата : 4 кадра
Параметр GOP формата : N=1
Идентификатор кодека : V_MPEG4/ISO/AVC
Продолжительность : 1 ч. 17 м.
Битрейт : 5196 Кбит/сек
Ширина : 1920 пикселей
Высота : 1038 пикселей
Соотношение сторон : 1,85:1
Режим частоты кадров : Постоянный
Частота кадров : 24,000 кадра/сек
Цветовое пространство : YUV
Субдискретизация насыщенности : 4:2:0
Битовая глубина : 8 бит
Тип развёртки : Прогрессивная
Бит/(Пиксели*Кадры) : 0.109
Размер потока : 2,81 Гбайт (93%)
Язык : English
Default : Да
Forced : Нет
Цветовой диапазон : Limited
Основные цвета : BT.709
Характеристики трансфера : BT.709
Коэффициенты матрицы : BT.709
Аудио
Идентификатор : 2
Формат : AC-3
Формат/Информация : Audio Coding 3
Расширение режима : CM (complete main)
Параметр Endianness формата : Big
Идентификатор кодека : A_AC3
Продолжительность : 1 ч. 17 м.
Вид битрейта : Постоянный
Битрейт : 384 Кбит/сек
Каналы : 6 каналов
Расположение каналов : Front: L C R, Side: L R, LFE
Частота : 48,0 КГц
Частота кадров : 31,250 кадров/сек (1536 spf)
Метод сжатия : С потерями
Размер потока : 213 Мбайт (7%)
Язык : Russian
Default : Да
Forced : Нет
Меню
00:00:00.000 : en:Глава 1
00:07:18.666 : en:Глава 2
00:13:14.791 : en:Глава 3
00:18:34.541 : en:Глава 4
00:24:11.457 : en:Глава 5
00:29:49.582 : en:Глава 6
00:35:46.207 : en:Глава 7
00:42:57.207 : en:Глава 8
00:49:05.665 : en:Глава 9
00:54:48.206 : en:Глава 10
01:00:46.831 : en:Глава 11
01:08:27.414 : en:Глава 12

Скриншоты


[www.cybertorrent.ru].t2918.torrent 
Торрент: Зарегистрирован [ 2018-02-16 14:35 ] · 52B161F7975F062CC40B78238B33F6ADF83A0AE3

Скачать .torrent

Скачать

16 KB

Статус: проверено
Скачан: 0 раз
Размер: 3,02 GB
Профиль [ЛС]
Показать сообщения:    

Текущее время: 20-Окт 06:47

Часовой пояс: UTC ± 0



Вы не можете начинать темы
Вы не можете отвечать на сообщения
Вы не можете редактировать свои сообщения
Вы не можете удалять свои сообщения
Вы не можете голосовать в опросах
Вы не можете прикреплять файлы к сообщениям
Вы можете скачивать файлы
Torrents24.ru открытый BitTorrent Torrents24.pl открытый BitTorrent CyberTorrent.ru открытый BitTorrent BtList.ru рейтинг BitTorrent трекеров Яндекс.Метрика