Статистика раздачи
Размер:  35,12 GB   |    Зарегистрирован:  4 месяца 4 дня   |    Скачан:  0 раз

Полного источника не было: Никогда

 
   
 
 

DR_KTO ®

Пол:
Не указан
Стаж:
4 месяца 5 дней
Сообщений:
97

Симпсоны / Simpsons
Страна: США
Жанр: ситком
Продолжительность серии: ~22мин
Год выпуска: 1989-1994
Перевод: Профессиональный (двухголосный закадровый) RenTV
Русские субтитры: нет
Режиссёр: Дэвид Сильверман
Описание: Мультфильм — пародия на американский уклад жизни. Симпсоны живут в вымышленном городе Спрингфилд, со своим обществом и историей. Cемейство Симпсонов состоит из пяти членов: Гомер - отец семейства, который дает плохие советы и работает инспектором безопасности на атомной электростанции; Мардж - любящая мать и жена, старается сохранить спокойствие в семье; Барт - 10 летний хулиган; Лиза - философский 8-летний ребенок; и Мэгги - младенец, который общается посредством соски.
Ссылка на предыдущие и альтернативные раздачи: http://cybertorrent.ru/viewforum.php?f=924

1 Сезон

Семпл: http://multi-up.com/1126507 http://multi-up.com/1126508
Качество: DVDRip
Формат: MKV
Видео: H.264 / 704 X 528 / 25 fps / 1200 Kbps / 2 pass / 0.129 - Bits/(Pixel*Frame) 0.129
Аудио 1: AC3 / 48 KHz / 5.1 / 384 Kbps - русская
Аудио 2: AC3 / 48 KHz / 5.1 / 448 Kbps - английская
Аудио 3: AC3 / 48 KHz / 2.0 / 96 Kbps - комментарии
Субтитры: отсутствуют

Список серий:

01. Симпсоны жарятся на открытом огне (Simpsons Roasting on an Open Fire)
02. Барт - гений (Bart the Genius)
03. Одиссея Гомера (Homer's Odyssey)
04. Нет места хуже дома (There's no Disgrace Like Home)
05. Барт - генерал (Bart the General)
06. Стонущая Лиза (Moaning Lisa)
07. Зов Симпсонов (The Call of the Simpsons)
08. Говорящая голова (The Telltale Head)
09. Жизнь на быстрой дорожке (Life on the Fast Lane)
10. Вечеринка Гомера (Homer's Night Out)
11. Гроздья гнева (The Crepes of Wrath)
12. Красти арестован (Krusty Gets Busted)
13. В один из прекрасных вечеров (Some Enchanted Evening)

Подробные технические данные

General
Unique ID : 231738144707449741643190766758348356259 (0xAE5724A9BB027212B9C7035A109A7AA3)
Complete name : M:\Torrent\Simpsons_DVDRip-AVC_FOX_RU\01\01 - Simpsons Roasting on an Open Fire.mkv
Format : Matroska
Format version : Version 2
File size : 339 MiB
Duration : 22mn 15s
Overall bit rate : 2 130 Kbps
Movie name : 01 - Simpsons Roasting on an Open Fire / Симпсоны готовят на открытом огне / Симпсоны 1 сезон / Релиз - D2T/"Криволапый ювелир"
Encoded date : UTC 2016-11-10 15:19:59
Writing application : mkvmerge v4.0.0 ('The Stars were mine') сборка от Jun 6 2010 16:18:42
Writing library : libebml v1.0.0 + libmatroska v1.0.0
DURATION : 00:22:15.240000000
NUMBER_OF_FRAMES : 33381
NUMBER_OF_BYTES : 200291034
_STATISTICS_WRITING_APP : mkvmerge v8.5.2 ('Crosses') 32bit
_STATISTICS_WRITING_DATE_UT : 2016-11-10 00:59:02
_STATISTICS_TAGS : BPS DURATION NUMBER_OF_FRAMES NUMBER_OF_BYTES
Video
ID : 1
Format : AVC
Format/Info : Advanced Video Codec
Format profile : Main@L3.1
Format settings, CABAC : Yes
Format settings, ReFrames : 4 frames
Codec ID : V_MPEG4/ISO/AVC
Duration : 22mn 15s
Bit rate : 1 200 Kbps
Width : 704 pixels
Height : 528 pixels
Display aspect ratio : 4:3
Frame rate mode : Constant
Frame rate : 25.000 fps
Color space : YUV
Chroma subsampling : 4:2:0
Bit depth : 8 bits
Scan type : Progressive
Bits/(Pixel*Frame) : 0.129
Stream size : 185 MiB (54%)
Writing library : x264 core 148 r2638 7599210
Encoding settings : cabac=1 / ref=3 / deblock=1:0:0 / analyse=0x1:0x131 / me=esa / subme=9 / psy=1 / psy_rd=1.00:0.00 / mixed_ref=1 / me_range=16 / chroma_me=1 / trellis=2 / 8x8dct=0 / cqm=0 / deadzone=21,11 / fast_pskip=1 / chroma_qp_offset=-2 / threads=6 / lookahead_threads=1 / sliced_threads=0 / nr=0 / decimate=1 / interlaced=0 / bluray_compat=0 / constrained_intra=0 / bframes=3 / b_pyramid=2 / b_adapt=2 / b_bias=0 / direct=3 / weightb=1 / open_gop=0 / weightp=2 / keyint=150 / keyint_min=1 / scenecut=33 / intra_refresh=0 / rc_lookahead=40 / rc=2pass / mbtree=1 / bitrate=1200 / ratetol=1.0 / qcomp=0.60 / qpmin=10 / qpmax=28 / qpstep=4 / cplxblur=20.0 / qblur=0.5 / vbv_maxrate=14000 / vbv_bufsize=14000 / nal_hrd=none / filler=0 / ip_ratio=1.40 / aq=1:1.00
Default : No
Forced : No
Audio #1
ID : 2
Format : AC-3
Format/Info : Audio Coding 3
Mode extension : CM (complete main)
Format settings, Endianness : Big
Codec ID : A_AC3
Duration : 22mn 15s
Bit rate mode : Constant
Bit rate : 384 Kbps
Channel(s) : 6 channels
Channel positions : Front: L C R, Side: L R, LFE
Sampling rate : 48.0 KHz
Bit depth : 16 bits
Compression mode : Lossy
Delay relative to video : 24ms
Stream size : 61.1 MiB (18%)
Title : RenTV
Language : Russian
Default : Yes
Forced : No
Audio #2
ID : 3
Format : AC-3
Format/Info : Audio Coding 3
Mode extension : CM (complete main)
Format settings, Endianness : Big
Codec ID : A_AC3
Duration : 22mn 15s
Bit rate mode : Constant
Bit rate : 448 Kbps
Channel(s) : 6 channels
Channel positions : Front: L C R, Side: L R, LFE
Sampling rate : 48.0 KHz
Bit depth : 16 bits
Compression mode : Lossy
Delay relative to video : 24ms
Stream size : 71.3 MiB (21%)
Language : English
Default : No
Forced : No
Audio #3
ID : 4
Format : AC-3
Format/Info : Audio Coding 3
Mode extension : CM (complete main)
Format settings, Endianness : Big
Codec ID : A_AC3
Duration : 22mn 15s
Bit rate mode : Constant
Bit rate : 96.0 Kbps
Channel(s) : 2 channels
Channel positions : Front: L R
Sampling rate : 48.0 KHz
Bit depth : 16 bits
Compression mode : Lossy
Delay relative to video : 8ms
Stream size : 15.3 MiB (5%)
Title : DC
Language : English
Default : No
Forced : No

Скриншоты

2 Сезон

Семпл: http://multi-up.com/1162488
Качество: DVDRip
Формат: MKV
Видео: H.264 / 704 X 528 / 25 fps / 1200 Kbps / 2 pass / 0.129 - Bits/(Pixel*Frame) 0.129
Аудио 1: AC3 / 48 KHz / 2.0 / 192 Kbps - русская
Аудио 2: AC3 / 48 KHz / 5.1 / 448 Kbps - английская
Аудио 3: AC3 / 48 KHz / 2.0 / 192 Kbps - комментарии
Субтитры: отсутствуют

Список серий:

Подробные технические данные

General
Unique ID : 226879214495019488017439259782496291715 (0xAAAF58E85BA3F9BB9D62043F6D728B83)
Complete name : N:\Torrent\Simpsons_DVDRip-AVC_FOX_RU\02\01 - Bart Gets an F.mkv
Format : Matroska
Format version : Version 2
File size : 323 MiB
Duration : 22mn 13s
Overall bit rate : 2 035 Kbps
Movie name : 01 - Bart Gets an F / Барт получает двойку / Симпсоны 2 сезон / Релиз - D2T/"Криволапый ювелир"
Encoded date : UTC 2017-06-25 19:53:53
Writing application : mkvmerge v4.0.0 ('The Stars were mine') сборка от Jun 6 2010 16:18:42
Writing library : libebml v1.0.0 + libmatroska v1.0.0
Video
ID : 1
Format : AVC
Format/Info : Advanced Video Codec
Format profile : Main@L3.1
Format settings, CABAC : Yes
Format settings, ReFrames : 4 frames
Codec ID : V_MPEG4/ISO/AVC
Duration : 22mn 13s
Bit rate : 1 200 Kbps
Width : 704 pixels
Height : 528 pixels
Display aspect ratio : 4:3
Frame rate mode : Constant
Frame rate : 25.000 fps
Color space : YUV
Chroma subsampling : 4:2:0
Bit depth : 8 bits
Scan type : Progressive
Bits/(Pixel*Frame) : 0.129
Stream size : 185 MiB (57%)
Writing library : x264 core 148 r2638 7599210
Encoding settings : cabac=1 / ref=3 / deblock=1:0:0 / analyse=0x1:0x131 / me=esa / subme=9 / psy=1 / psy_rd=1.00:0.00 / mixed_ref=1 / me_range=16 / chroma_me=1 / trellis=2 / 8x8dct=0 / cqm=0 / deadzone=21,11 / fast_pskip=1 / chroma_qp_offset=-2 / threads=6 / lookahead_threads=1 / sliced_threads=0 / nr=0 / decimate=1 / interlaced=0 / bluray_compat=0 / constrained_intra=0 / bframes=3 / b_pyramid=2 / b_adapt=2 / b_bias=0 / direct=3 / weightb=1 / open_gop=0 / weightp=2 / keyint=150 / keyint_min=1 / scenecut=33 / intra_refresh=0 / rc_lookahead=40 / rc=2pass / mbtree=1 / bitrate=1200 / ratetol=1.0 / qcomp=0.60 / qpmin=10 / qpmax=28 / qpstep=4 / cplxblur=20.0 / qblur=0.5 / vbv_maxrate=14000 / vbv_bufsize=14000 / nal_hrd=none / filler=0 / ip_ratio=1.40 / aq=1:1.00
Default : No
Forced : No
Audio #1
ID : 2
Format : AC-3
Format/Info : Audio Coding 3
Mode extension : CM (complete main)
Format settings, Endianness : Big
Codec ID : A_AC3
Duration : 22mn 13s
Bit rate mode : Constant
Bit rate : 192 Kbps
Channel(s) : 2 channels
Channel positions : Front: L R
Sampling rate : 48.0 KHz
Bit depth : 16 bits
Compression mode : Lossy
Delay relative to video : 24ms
Stream size : 30.5 MiB (9%)
Title : RenTV
Language : Russian
Default : Yes
Forced : No
Audio #2
ID : 3
Format : AC-3
Format/Info : Audio Coding 3
Mode extension : CM (complete main)
Format settings, Endianness : Big
Codec ID : A_AC3
Duration : 22mn 13s
Bit rate mode : Constant
Bit rate : 448 Kbps
Channel(s) : 6 channels
Channel positions : Front: L C R, Side: L R, LFE
Sampling rate : 48.0 KHz
Bit depth : 16 bits
Compression mode : Lossy
Delay relative to video : 24ms
Stream size : 71.2 MiB (22%)
Language : English
Default : No
Forced : No
Audio #3
ID : 4
Format : AC-3
Format/Info : Audio Coding 3
Format profile : Dolby Digital
Mode extension : CM (complete main)
Format settings, Endianness : Big
Codec ID : A_AC3
Duration : 22mn 13s
Bit rate mode : Constant
Bit rate : 192 Kbps
Channel(s) : 2 channels
Channel positions : Front: L R
Sampling rate : 48.0 KHz
Bit depth : 16 bits
Compression mode : Lossy
Delay relative to video : 25ms
Stream size : 30.5 MiB (9%)
Title : DC
Language : English
Default : No
Forced : No

Скриншоты

3 Сезон

Семпл: http://multi-up.com/1162489
Качество: DVDRip
Формат: MKV
Видео: H.264 / 704 X 528 / 25 fps / 1200 Kbps / 2 pass / 0.129 - Bits/(Pixel*Frame) 0.129
Аудио 1: AC3 / 48 KHz / 5.1 / 384 Kbps - русская
Аудио 2: AC3 / 48 KHz / 5.1 / 448 Kbps - английская
Аудио 3: AC3 / 48 KHz / 2.0 / 192 Kbps - комментарии
Субтитры: отсутствуют

Список серий:

Подробные технические данные

General
Unique ID : 191579408463593372599550770245779460029 (0x9020DA195115DC488AB91F0089060FBD)
Complete name : N:\Torrent\Simpsons_DVDRip-AVC_FOX_RU\03\01 - Stark Raving Dad.mkv
Format : Matroska
Format version : Version 2
File size : 352 MiB
Duration : 22mn 7s
Overall bit rate : 2 226 Kbps
Movie name : 01 - Stark Raving Dad / Папа совершенно бредит / Симпсоны 3 сезон / Релиз - D2T/"Криволапый ювелир"
Encoded date : UTC 2017-07-01 00:09:13
Writing application : mkvmerge v4.0.0 ('The Stars were mine') сборка от Jun 6 2010 16:18:42
Writing library : libebml v1.0.0 + libmatroska v1.0.0
DURATION : 00:22:07.640000000
NUMBER_OF_FRAMES : 33191
NUMBER_OF_BYTES : 199118764
_STATISTICS_WRITING_APP : mkvmerge v8.5.2 ('Crosses') 32bit
_STATISTICS_WRITING_DATE_UT : 2016-12-12 17:50:12
_STATISTICS_TAGS : BPS DURATION NUMBER_OF_FRAMES NUMBER_OF_BYTES
Video
ID : 1
Format : AVC
Format/Info : Advanced Video Codec
Format profile : Main@L3.1
Format settings, CABAC : Yes
Format settings, ReFrames : 4 frames
Codec ID : V_MPEG4/ISO/AVC
Duration : 22mn 7s
Bit rate : 1 200 Kbps
Width : 704 pixels
Height : 528 pixels
Display aspect ratio : 4:3
Frame rate mode : Constant
Frame rate : 25.000 fps
Color space : YUV
Chroma subsampling : 4:2:0
Bit depth : 8 bits
Scan type : Progressive
Bits/(Pixel*Frame) : 0.129
Stream size : 183 MiB (52%)
Writing library : x264 core 148 r2638 7599210
Encoding settings : cabac=1 / ref=3 / deblock=1:0:0 / analyse=0x1:0x131 / me=esa / subme=9 / psy=1 / psy_rd=1.00:0.00 / mixed_ref=1 / me_range=16 / chroma_me=1 / trellis=2 / 8x8dct=0 / cqm=0 / deadzone=21,11 / fast_pskip=1 / chroma_qp_offset=-2 / threads=6 / lookahead_threads=1 / sliced_threads=0 / nr=0 / decimate=1 / interlaced=0 / bluray_compat=0 / constrained_intra=0 / bframes=3 / b_pyramid=2 / b_adapt=2 / b_bias=0 / direct=3 / weightb=1 / open_gop=0 / weightp=2 / keyint=150 / keyint_min=1 / scenecut=33 / intra_refresh=0 / rc_lookahead=40 / rc=2pass / mbtree=1 / bitrate=1200 / ratetol=1.0 / qcomp=0.60 / qpmin=10 / qpmax=28 / qpstep=4 / cplxblur=20.0 / qblur=0.5 / vbv_maxrate=14000 / vbv_bufsize=14000 / nal_hrd=none / filler=0 / ip_ratio=1.40 / aq=1:1.00
Default : No
Forced : No
Audio #1
ID : 2
Format : AC-3
Format/Info : Audio Coding 3
Mode extension : CM (complete main)
Format settings, Endianness : Big
Codec ID : A_AC3
Duration : 22mn 7s
Bit rate mode : Constant
Bit rate : 384 Kbps
Channel(s) : 6 channels
Channel positions : Front: L C R, Side: L R, LFE
Sampling rate : 48.0 KHz
Bit depth : 16 bits
Compression mode : Lossy
Stream size : 60.8 MiB (17%)
Title : RenTV
Language : Russian
Default : Yes
Forced : No
Audio #2
ID : 3
Format : AC-3
Format/Info : Audio Coding 3
Mode extension : CM (complete main)
Format settings, Endianness : Big
Codec ID : A_AC3
Duration : 22mn 7s
Bit rate mode : Constant
Bit rate : 448 Kbps
Channel(s) : 6 channels
Channel positions : Front: L C R, Side: L R, LFE
Sampling rate : 48.0 KHz
Bit depth : 16 bits
Compression mode : Lossy
Stream size : 70.9 MiB (20%)
Language : English
Default : No
Forced : No
Audio #3
ID : 4
Format : AC-3
Format/Info : Audio Coding 3
Format profile : Dolby Digital
Mode extension : CM (complete main)
Format settings, Endianness : Big
Codec ID : A_AC3
Duration : 22mn 7s
Bit rate mode : Constant
Bit rate : 192 Kbps
Channel(s) : 2 channels
Channel positions : Front: L R
Sampling rate : 48.0 KHz
Bit depth : 16 bits
Compression mode : Lossy
Stream size : 30.4 MiB (9%)
Title : DC
Language : English
Default : No
Forced : No

Скриншоты

4 Сезон

Семпл: http://multi-up.com/1162490
Качество: DVDRip
Формат: MKV
Видео: H.264 / 704 X 528 / 25 fps / 1200 Kbps / 2 pass / 0.129 - Bits/(Pixel*Frame) 0.129
Аудио 1: AC3 / 48 KHz / 5.1 / 448 Kbps - русская
Аудио 2: AC3 / 48 KHz / 5.1 / 448 Kbps - английская
Аудио 3: AC3 / 48 KHz / 2.0 / 192 Kbps - комментарии
Субтитры: отсутствуют

Список серий:

Подробные технические данные

General
Unique ID : 207890385380002228516951717791434689772 (0x9C663B598FD33B7E9F1614E382F24CEC)
Complete name : N:\Torrent\Simpsons_DVDRip-AVC_FOX_RU\04\01 - Kamp Krusty.mkv
Format : Matroska
Format version : Version 2
File size : 360 MiB
Duration : 21mn 59s
Overall bit rate : 2 289 Kbps
Movie name : 01 - Kamp Krusty / Лагерь Красти / Симпсоны 4 сезон / Релиз - D2T/"Криволапый ювелир"
Encoded date : UTC 2017-07-21 22:35:46
Writing application : mkvmerge v4.0.0 ('The Stars were mine') сборка от Jun 6 2010 16:18:42
Writing library : libebml v1.0.0 + libmatroska v1.0.0
Video
ID : 1
Format : AVC
Format/Info : Advanced Video Codec
Format profile : Main@L3.1
Format settings, CABAC : Yes
Format settings, ReFrames : 4 frames
Codec ID : V_MPEG4/ISO/AVC
Duration : 21mn 59s
Bit rate : 1 200 Kbps
Width : 704 pixels
Height : 528 pixels
Display aspect ratio : 4:3
Frame rate mode : Constant
Frame rate : 25.000 fps
Color space : YUV
Chroma subsampling : 4:2:0
Bit depth : 8 bits
Scan type : Progressive
Bits/(Pixel*Frame) : 0.129
Stream size : 182 MiB (50%)
Writing library : x264 core 148 r2638 7599210
Encoding settings : cabac=1 / ref=3 / deblock=1:0:0 / analyse=0x1:0x131 / me=esa / subme=9 / psy=1 / psy_rd=1.00:0.00 / mixed_ref=1 / me_range=16 / chroma_me=1 / trellis=2 / 8x8dct=0 / cqm=0 / deadzone=21,11 / fast_pskip=1 / chroma_qp_offset=-2 / threads=6 / lookahead_threads=1 / sliced_threads=0 / nr=0 / decimate=1 / interlaced=0 / bluray_compat=0 / constrained_intra=0 / bframes=3 / b_pyramid=2 / b_adapt=2 / b_bias=0 / direct=3 / weightb=1 / open_gop=0 / weightp=2 / keyint=150 / keyint_min=1 / scenecut=33 / intra_refresh=0 / rc_lookahead=40 / rc=2pass / mbtree=1 / bitrate=1200 / ratetol=1.0 / qcomp=0.60 / qpmin=10 / qpmax=28 / qpstep=4 / cplxblur=20.0 / qblur=0.5 / vbv_maxrate=14000 / vbv_bufsize=14000 / nal_hrd=none / filler=0 / ip_ratio=1.40 / aq=1:1.00
Default : No
Forced : No
Audio #1
ID : 2
Format : AC-3
Format/Info : Audio Coding 3
Mode extension : CM (complete main)
Format settings, Endianness : Big
Codec ID : A_AC3
Duration : 21mn 59s
Bit rate mode : Constant
Bit rate : 448 Kbps
Channel(s) : 6 channels
Channel positions : Front: L C R, Side: L R, LFE
Sampling rate : 48.0 KHz
Bit depth : 16 bits
Compression mode : Lossy
Stream size : 70.5 MiB (20%)
Title : RenTV
Language : Russian
Default : Yes
Forced : No
Audio #2
ID : 3
Format : AC-3
Format/Info : Audio Coding 3
Mode extension : CM (complete main)
Format settings, Endianness : Big
Codec ID : A_AC3
Duration : 21mn 59s
Bit rate mode : Constant
Bit rate : 448 Kbps
Channel(s) : 6 channels
Channel positions : Front: L C R, Side: L R, LFE
Sampling rate : 48.0 KHz
Bit depth : 16 bits
Compression mode : Lossy
Stream size : 70.5 MiB (20%)
Language : English
Default : No
Forced : No
Audio #3
ID : 4
Format : AC-3
Format/Info : Audio Coding 3
Mode extension : CM (complete main)
Format settings, Endianness : Big
Codec ID : A_AC3
Duration : 21mn 59s
Bit rate mode : Constant
Bit rate : 192 Kbps
Channel(s) : 2 channels
Channel positions : Front: L R
Sampling rate : 48.0 KHz
Bit depth : 16 bits
Compression mode : Lossy
Stream size : 30.2 MiB (8%)
Title : DC
Language : English
Default : No
Forced : No

Скриншоты

5 Сезон

Семпл: http://multi-up.com/1162491
Качество: DVDRip
Формат: MKV
Видео: H.264 / 704 X 528 / 25 fps / 1200 Kbps / 2 pass / 0.129 - Bits/(Pixel*Frame) 0.129
Аудио 1: AC3 / 48 KHz / 5.1 / 448 Kbps - русская
Аудио 2: AC3 / 48 KHz / 5.1 / 448 Kbps - английская
Аудио 3: AC3 / 48 KHz / 2.0 / 192 Kbps - комментарии
Субтитры: отсутствуют

Список серий:

Подробные технические данные

General
Unique ID : 173613155351545427494886987773147265067 (0x829CAD6E38EB4D2E975C41621366B82B)
Complete name : N:\Torrent\Simpsons_DVDRip-AVC_FOX_RU\05\01 - Homer’s Barbershop Quartet.mkv
Format : Matroska
Format version : Version 2
File size : 360 MiB
Duration : 21mn 59s
Overall bit rate : 2 290 Kbps
Movie name : 01 - Homer’s Barbershop Quartet / Квартет Гомера / Симпсоны 5 сезон / Релиз - D2T/"Криволапый ювелир"
Encoded date : UTC 2017-07-22 22:31:32
Writing application : mkvmerge v4.0.0 ('The Stars were mine') сборка от Jun 6 2010 16:18:42
Writing library : libebml v1.0.0 + libmatroska v1.0.0
Video
ID : 1
Format : AVC
Format/Info : Advanced Video Codec
Format profile : Main@L3.1
Format settings, CABAC : Yes
Format settings, ReFrames : 4 frames
Codec ID : V_MPEG4/ISO/AVC
Duration : 21mn 59s
Bit rate : 1 200 Kbps
Width : 704 pixels
Height : 528 pixels
Display aspect ratio : 4:3
Frame rate mode : Constant
Frame rate : 25.000 fps
Color space : YUV
Chroma subsampling : 4:2:0
Bit depth : 8 bits
Scan type : Progressive
Bits/(Pixel*Frame) : 0.129
Stream size : 182 MiB (51%)
Writing library : x264 core 148 r2744 b97ae06
Encoding settings : cabac=1 / ref=3 / deblock=1:0:0 / analyse=0x1:0x131 / me=esa / subme=9 / psy=1 / psy_rd=1.00:0.00 / mixed_ref=1 / me_range=16 / chroma_me=1 / trellis=2 / 8x8dct=0 / cqm=0 / deadzone=21,11 / fast_pskip=1 / chroma_qp_offset=-2 / threads=6 / lookahead_threads=1 / sliced_threads=0 / nr=0 / decimate=1 / interlaced=0 / bluray_compat=0 / constrained_intra=0 / bframes=3 / b_pyramid=2 / b_adapt=2 / b_bias=0 / direct=3 / weightb=1 / open_gop=0 / weightp=2 / keyint=150 / keyint_min=1 / scenecut=33 / intra_refresh=0 / rc_lookahead=40 / rc=2pass / mbtree=1 / bitrate=1200 / ratetol=1.0 / qcomp=0.60 / qpmin=10 / qpmax=28 / qpstep=4 / cplxblur=20.0 / qblur=0.5 / vbv_maxrate=14000 / vbv_bufsize=14000 / nal_hrd=none / filler=0 / ip_ratio=1.40 / aq=1:1.00
Default : No
Forced : No
Audio #1
ID : 2
Format : AC-3
Format/Info : Audio Coding 3
Mode extension : CM (complete main)
Format settings, Endianness : Big
Codec ID : A_AC3
Duration : 21mn 59s
Bit rate mode : Constant
Bit rate : 448 Kbps
Channel(s) : 6 channels
Channel positions : Front: L C R, Side: L R, LFE
Sampling rate : 48.0 KHz
Bit depth : 16 bits
Compression mode : Lossy
Stream size : 70.4 MiB (20%)
Title : RenTV
Language : Russian
Default : Yes
Forced : No
Audio #2
ID : 3
Format : AC-3
Format/Info : Audio Coding 3
Mode extension : CM (complete main)
Format settings, Endianness : Big
Codec ID : A_AC3
Duration : 21mn 59s
Bit rate mode : Constant
Bit rate : 448 Kbps
Channel(s) : 6 channels
Channel positions : Front: L C R, Side: L R, LFE
Sampling rate : 48.0 KHz
Bit depth : 16 bits
Compression mode : Lossy
Stream size : 70.4 MiB (20%)
Language : English
Default : No
Forced : No
Audio #3
ID : 4
Format : AC-3
Format/Info : Audio Coding 3
Mode extension : CM (complete main)
Format settings, Endianness : Big
Codec ID : A_AC3
Duration : 21mn 59s
Bit rate mode : Constant
Bit rate : 192 Kbps
Channel(s) : 2 channels
Channel positions : Front: L R
Sampling rate : 48.0 KHz
Bit depth : 16 bits
Compression mode : Lossy
Stream size : 30.2 MiB (8%)
Title : DC
Language : English
Default : No
Forced : No

Скриншоты

Релиз

"D2T/Криволапый ювелир"
[www.cybertorrent.ru].t2892.torrent 
Торрент: Зарегистрирован [ 2018-02-16 14:35 ] · 56801CDC73C49CDE206CB35CA10D86CD3931F505

Скачать .torrent

Скачать

96 KB

Статус: проверено
Скачан: 0 раз
Размер: 35,12 GB
Профиль [ЛС]
Показать сообщения:    

Текущее время: 21-Июн 08:06

Часовой пояс: UTC ± 0



Вы не можете начинать темы
Вы не можете отвечать на сообщения
Вы не можете редактировать свои сообщения
Вы не можете удалять свои сообщения
Вы не можете голосовать в опросах
Вы не можете прикреплять файлы к сообщениям
Вы можете скачивать файлы