Статистика раздачи
Размер:  16,84 GB   |    Зарегистрирован:  9 месяцев 25 дней   |    Скачан:  0 раз

Полного источника не было: Никогда

 
   
 
 

deltacatsplus ®

Пол:
Не указан
Стаж:
9 месяцев 26 дней
Сообщений:
202

Точь в точь 4 сезон 05 - 08 выпуск
Дата/Год выпуска: 2016
Страна: Россия
Жанр: Тв-шоу
Продолжительность: ~02:20:00 выпуск
Перевод: Не требуется
Телеканал: Первый канал HD
Описание: В эфире стартует новый сезон одного из самых популярных в стране музыкально-развлекательных телепроектов! Зрителей вновь ждут невероятные сценические перевоплощения и самые известные хиты! В этот раз за звание победителя проекта поспорят те, кому однажды уже приходилось подниматься на сцену "Точь-в-Точь". Участники - Никита Пресняков, Родион Газманов, Ирина Дубцова, Азиза, Аглая Шиловская, Лада Дэнс, Глеб Матвейчук, Наталья Подольская, Евгений Дятлов, Дмитрий Колдун, Ксана Сергиенко и Елена Максимова. Новый сезон "Точь-в-Точь", пожалуй, самый разноплановый - участники проекта создали более сотни почти аутентичных образов великих исполнителей прошлых лет и современных популярных музыкантов. Создатели шоу не обошли вниманием ни один музыкальный жанр, будь то классические партии или тяжелый рок, целая программа посвящена киношлягерам в исполнении знаменитых советских и российских актеров, в других выпусках участники проводят музыкальные дуэли (когда двое артистов выступают в образе одного исполнителя). Каждый номер шоу - полное погружение в создаваемый образ: артист воспроизводит не только голос и хореографию, но также внешний облик и манеру держаться на сцене. Нередко участникам "Точь-в-Точь" приходится "менять пол". Больше всего таких выступлений у Азизы, Лады Дэнс и Ксаны Сергиенко (по 4). Тренд "перевоплощения" подхватят все члены жюри, третейский судья и ведущий, а также каждый из приглашенных гостей (чаще всего в этом будет замечен Максим Галкин, уже принимавший участие в "Точь-в-Точь").
Жюри: Геннадий Хазанов, Любовь Казарновская, Леонид Ярмольник, Михаил Боярский.
Участники: Никита Пресняков, Родион Газманов, Ирина Дубцова, Азиза, Аглая Шиловская, Лада Дэнс, Глеб Матвейчук, Наталья Подольская, Евгений Дятлов, Дмитрий Колдун, Ксана Сергиенко и Елена Максимова.
Качество: HDTV 720p
Контейнер: mkv
Видео кодек: H.264
Аудио кодек: AC3
Видео: H264; 1280x720 (16:9); 25.000 fps; ~3 860 Kbps
Аудио : AC3, 2 channels stereo , 48000Hz, 384 Кбит/сек

MediaInfo

General
Unique ID : 253989013255134976234304169303867347025 (0xBF14812E9A299D7F8C1E215B2DFF5051)
Complete name : J:\111\Точь в точь 4 сезон 2016 HDTVRip 720p\Точь-в-точь. 4 сезон. 05 выпуск от 2016.10.30 HDTVRip 720p_.mkv
Format : Matroska
Format version : Version 2
File size : 4.16 GiB
Duration : 2 h 20 min
Overall bit rate : 4 246 kb/s
Encoded date : UTC 2016-11-01 23:09:26
Writing application : mkvmerge v7.8.0 ('River Man') 32bit built on Apr 3 2015 12:11:22
Writing library : libebml v1.3.1 + libmatroska v1.4.2
Video
ID : 1
Format : AVC
Format/Info : Advanced Video Codec
Format profile : High@L4.1
Format settings, CABAC : Yes
Format settings, ReFrames : 8 frames
Codec ID : V_MPEG4/ISO/AVC
Duration : 2 h 20 min
Bit rate : 3 860 kb/s
Width : 1 280 pixels
Height : 720 pixels
Display aspect ratio : 16:9
Frame rate mode : Constant
Frame rate : 25.000 FPS
Color space : YUV
Chroma subsampling : 4:2:0
Bit depth : 8 bits
Scan type : Progressive
Bits/(Pixel*Frame) : 0.168
Stream size : 3.70 GiB (89%)
Writing library : x264 core 146 r2538 121396c
Encoding settings : cabac=1 / ref=8 / deblock=1:-1:-1 / analyse=0x3:0x113 / me=umh / subme=7 / psy=1 / psy_rd=1.00:0.20 / mixed_ref=1 / me_range=16 / chroma_me=1 / trellis=2 / 8x8dct=1 / cqm=0 / deadzone=21,11 / fast_pskip=0 / chroma_qp_offset=-3 / threads=6 / lookahead_threads=1 / sliced_threads=0 / nr=0 / decimate=0 / interlaced=0 / bluray_compat=0 / constrained_intra=0 / bframes=3 / b_pyramid=2 / b_adapt=2 / b_bias=0 / direct=3 / weightb=1 / open_gop=0 / weightp=2 / keyint=250 / keyint_min=25 / scenecut=40 / intra_refresh=0 / rc_lookahead=50 / rc=2pass / mbtree=1 / bitrate=3860 / ratetol=1.0 / qcomp=0.60 / qpmin=0 / qpmax=69 / qpstep=4 / cplxblur=20.0 / qblur=0.5 / vbv_maxrate=14000 / vbv_bufsize=14000 / nal_hrd=none / filler=0 / ip_ratio=1.40 / aq=1:1.00
Default : Yes
Forced : No
Audio
ID : 2
Format : AC-3
Format/Info : Audio Coding 3
Mode extension : CM (complete main)
Format settings, Endianness : Big
Codec ID : A_AC3
Duration : 2 h 20 min
Bit rate mode : Constant
Bit rate : 384 kb/s
Channel(s) : 2 channels
Channel positions : Front: L R
Sampling rate : 48.0 kHz
Frame rate : 31.250 FPS (1536 spf)
Compression mode : Lossy
Stream size : 385 MiB (9%)
Default : Yes
Forced : No

Скриншоты


[www.cybertorrent.ru].t2878.torrent 
Торрент: Зарегистрирован [ 2018-02-16 14:35 ] · 33B755B52B915EC5AF216AFFB17CF5BD7539C0E6

Скачать .torrent

Скачать

43 KB

Статус: проверено
Скачан: 0 раз
Размер: 16,84 GB
Профиль [ЛС]
Показать сообщения:    

Текущее время: 13-Дек 21:03

Часовой пояс: UTC ± 0



Вы не можете начинать темы
Вы не можете отвечать на сообщения
Вы не можете редактировать свои сообщения
Вы не можете удалять свои сообщения
Вы не можете голосовать в опросах
Вы не можете прикреплять файлы к сообщениям
Вы можете скачивать файлы
Torrents24.ru открытый BitTorrent Torrents24.pl открытый BitTorrent CyberTorrent.ru открытый BitTorrent BtList.ru рейтинг BitTorrent трекеров Яндекс.Метрика