BitTorrent клиенты



Ограбление по-итальянски / The Italian Job (Ф. Гэри Грей / F. Gary Gray) [2003, США, Франция, Великобритания, боевик, триллер, криминал, DVD5] DVO

Ответить на тему
 
Автор Сообщение

Zlo ®

Пол: Не указан

Стаж: 1 год

Сообщений: 648

Создавать темы 08-Фев-2018 15:46

[Цитировать]

Ограбление по-итальянски / The Italian Job
Страна: США, Франция, Великобритания
Жанр: боевик, триллер, криминал
Год выпуска: 2003
Продолжительность: 01:50:25
Перевод: Профессиональный (двухголосый, закадровый)
Субтитры: нет
Оригинальная аудиодорожка: нет
Режиссер: Ф. Гэри Грей / F. Gary Gray
В ролях: Марк Уолберг, Шарлиз Терон, Эдвард Нортон, Джейсон Стэйтем, Сет Грин, Ясин Бей, Дональд Сазерленд, Фрэнки Джи, Олек Крупа, Оскар Нунез
Описание: Джон Бриджер всегда умел спланировать идеальное ограбление. Вместе со своей командой опытных бандитов он провернул не одно дело, но теперь решил уйти на покой. Впереди у Бриджера последнее задание: кража золотых слитков, в которой принимают участие инсайдер Стив, водитель Роб, взрыватель Левое ухо, технарь Лайл и Чарли — верный друг Бриджера и второй «планировщик» в их команде. Ограбление, изящное и быстрое, было разыграно как по нотам, но после его завершения веселье преступников было омрачено предательством…
Меню: нет
Тип релиза: DVD5
Контейнер: DVD-Video
Видео: NTSC 16:9 (720x480(0.442)) MPEG Video, 29,970 кадр/сек, 4576 Кбит/сек
Аудио: Russian (Dolby AC-3, 6ch) 384 Кбит/сек, 48.0 КГц

MediaInfo

Общее
Полное имя : THE_ITALIAN_JOB\VIDEO_TS\VTS_01_1.VOB
Формат : MPEG-PS
Размер файла : 1024 Мбайт
Продолжительность : 28 м. 17 с.
Режим общего битрейта : Переменный
Общий поток : 5060 Кбит/сек
Видео
Идентификатор : 224 (0xE0)
Формат : MPEG Video
Версия формата : Version 2
Профиль формата : Main@Main
Параметр BVOP формата : Да
Параметр матрицы формата : Выборочная
Параметр GOP формата : M=3, N=12
Продолжительность : 28 м. 17 с.
Вид битрейта : Переменный
Битрейт : 4576 Кбит/сек
Максимальный битрейт : 9160 Кбит/сек
Ширина : 720 пикселей
Высота : 480 пикселей
Соотношение сторон : 16:9
Частота кадров : 29,970 (30000/1001) кадров/сек
Стандарт вещания : NTSC
Цветовое пространство : YUV
Субдискретизация насыщенности : 4:2:0
Битовая глубина : 8 бит
Метод сжатия : С потерями
Бит/(Пиксели*Кадры) : 0.442
Временной код первого кадра : 00:00:00;00
Оригинал временного кода : Group of pictures header
GOP, открыто/закрыто : Закрыто
Размер потока : 926 Мбайт (90%)
Аудио
Идентификатор : 189 (0xBD)-129 (0x81)
Формат : AC-3
Формат/Информация : Audio Coding 3
Параметр Endianness формата : Big
Режим смешивания : DVD-Video
Продолжительность : 28 м. 17 с.
Вид битрейта : Постоянный
Битрейт : 384 Кбит/сек
Каналы : 6 каналов
Расположение каналов : Front: L C R, Side: L R, LFE
Частота : 48,0 КГц
Частота кадров : 31,250 кадров/сек (1536 spf)
Битовая глубина : 16 бит
Метод сжатия : С потерями
Размер потока : 77,7 Мбайт (8%)
ServiceKind/String : Complete Main

Скриншоты

[Профиль] [ЛС]
Показать сообщения:    
Ответить на тему

Текущее время: 19-Фев 16:22

Часовой пояс: UTC + 3



Вы не можете начинать темы
Вы не можете отвечать на сообщения
Вы не можете редактировать свои сообщения
Вы не можете удалять свои сообщения
Вы не можете голосовать в опросах
Вы не можете прикреплять файлы к сообщениям
Вы можете скачивать файлы