Статистика раздачи
Размер:  41,28 GB   |    Зарегистрирован:  9 месяцев 1 день   |    Скачан:  0 раз

Полного источника не было: Никогда

 
   
 
 

koljan ®

Пол:
Не указан
Стаж:
9 месяцев 2 дня
Сообщений:
295

Страна: США
Производство: Rooster Teeth Productions
Жанр: Технофэнтези, Боевик, Комедия, Школа
Продолжительность: 4-28 мин
Год выпуска: 2013-2018
Перевод: Любительский многоголосый закадровый; Субтитры (см. информацию о каждом томе)
Режиссёр: Монти Оум / Monty Oum
Роли озвучивали: Lindsay Jones (Ruby Rose), Kara Eberle (Weiss Schnee), Arryn Zech (Blake Belladonna), Barbara Dunkelman (Yang Xiao Long), Miles Luna (Jaune Arc), Samantha Ireland (Nora Valkyrie), Neath Oum (Lie Ren), и другие
Описание: Давным-давно, в мире называемом Ремнант, появились полчища ужасных чудовищ — существ Гримм. Человечество оказалось на грани уничтожения. Однако, открытие волшебного вещества, "Праха", позволило отогнать Гримм. А в дальнейшем и поднять цивилизацию на совершенно иной уровень.
Сейчас об угрозе никто и не помнит. Ведь мир и покой охраняют искусные воины, способные управлять Прахом — Охотники и Охотницы. В лучшую академию страны, где готовят таких бойцов, попадает Руби Роуз: крайне одарённая девочка, помешанная на оружии.
Тайные заговоры, радикальные террористы и древнее зло, пробуждающееся от спячки. Готовы ли к такому юные герои? Посмотрим в сериале...
Предыдущие и альтернативные раздачи
В раздаче используется максимально возможный оригинальный поток с сайта RT. Качество на YouTube не отличается в лучшую сторону.
Качество: WEBRip 1080p
Формат: MKVRWBY Volume 1-3: Beacon

Том 1 (2013)

Трейлеры
07.11.12 RWBY Red Trailer (1280x720 AVC High@L3.1, 2121 kbps 30 FPS)
13.02.13 RWBY White Trailer (1280x720 AVC High@L3.1, 1870 kbps, 29.97 FPS)
22.03.13 RWBY Black Trailer (1280x720 AVC High@L3.1, 1987 kbps, 29.97 FPS)
01.06.13 RWBY Yellow Trailer (1920x1080 AVC High@L4, 4540 kbps, 29.97 FPS)
Аудио: Английский (оригинал) AAC-LC 192kbps-Видео: 1920x1080 AVC High@L4 (16 - Baseline@L4), 5000-9000 kbps, 29.97 FPS
Аудио:
- Английский (оригинал) (AAC-LC 44.1 kHz 318kbps, 16 серия - 157kbps)
- MVO (профессиональный) Kansai (AAC-LC 48 kHz, 320kbps (7 серия - 162kbps))
- MVO (любительский) SHIZA Project (Lizaveta & Yamaxa & San4Ees) (AAC-LC 48 kHz, 192kbps)
(в скобках - номер серии на BD/DVD)
19.07.13 01 (1): Ruby Rose (Руби Роуз) (00:12:20)
25.07.13 02 (2.1): The Shining Beacon (Сияющий Бикон) (00:06:15)
01.08.13 03 (2.2): The Shining Beacon, Pt. 2 (Сияющий Бикон, часть вторая) (00:06:38)
08.08.13 04 (3.1): First Step (Первый шаг) (00:07:35)
15.08.13 05 (3.2): First Step, Pt. 2 (Первый шаг, часть вторая) (00:04:32)
22.08.13 06 (4.1): Emerald Forest (Изумрудный лес) (00:07:14)
29.08.13 07 (4.2): Emerald Forest, Pt. 2 (Изумрудный лес, часть вторая) (00:04:47)
05.19.13 08 (5): Players and Pieces (Игроки и фигуры) (00:13:45)
12.09.13 09 (6.1): The Badge and the Burden (Значок и бремя) (00:05:32)
19.09.13 10 (6.2): The Badge and the Burden, Pt. 2 (Значок и бремя, часть вторая) (00:06:58)
26.09.13 11 (7.1): Jaundice (Жондис) (00:04:50)
03.10.13 12 (7.2): Jaundice, Pt. 2 (Жондис, часть вторая) (00:07:25)
10.10.13 13 (8.1): Forever Fall (Лес Вечной осени) (00:06:09)
17.10.13 14 (8.2): Forever Fall, Pt. 2 (Лес Вечной осени, часть вторая) (00:06:09)
31.10.13 15 (9): The Stray (Заблудшая) (00:10:41)
07.11.13 16 (10): Black and White (Чёрное и белое) (00:15:30)

Подробные технические данные

General
Unique ID : 238523023864726846324270433769345101136 (0xB371DD085A0930F588A27B297A65AD50)
Complete name : G:\RWBY [WEBRip]\Volume 1\RWBY V01E01 - Ruby Rose.mkv
Format : Matroska
Format version : Version 4 / Version 2
File size : 775 MiB
Duration : 12 min 20 s
Overall bit rate : 8 781 kb/s
Movie name : RWBY Volume 1, Chapter 1 - Ruby Rose
Encoded date : UTC 2017-11-26 15:56:44
Writing application : mkvmerge v18.0.0 ('Apricity') 64-bit
Writing library : libebml v1.3.5 + libmatroska v1.4.8
Cover : Yes
Attachments : cover.jpg
Video
ID : 1
Format : AVC
Format/Info : Advanced Video Codec
Format profile : High@L4
Format settings, CABAC : Yes
Format settings, RefFrames : 3 frames
Format settings, GOP : M=3, N=30
Codec ID : V_MPEG4/ISO/AVC
Duration : 12 min 20 s
Bit rate : 7 947 kb/s
Width : 1 920 pixels
Height : 1 080 pixels
Display aspect ratio : 16:9
Frame rate mode : Constant
Frame rate : 29.970 (30000/1001) FPS
Standard : NTSC
Color space : YUV
Chroma subsampling : 4:2:0
Bit depth : 8 bits
Scan type : Progressive
Bits/(Pixel*Frame) : 0.128
Stream size : 701 MiB (90%)
Default : Yes
Forced : No
Color range : Limited
Color primaries : BT.709
Transfer characteristics : BT.709
Matrix coefficients : BT.709
Audio #1
ID : 2
Format : AAC
Format/Info : Advanced Audio Codec
Format profile : LC
Codec ID : A_AAC
Duration : 12 min 20 s
Bit rate : 318 kb/s
Channel(s) : 2 channels
Channel positions : Front: L R
Sampling rate : 44.1 kHz
Frame rate : 43.066 FPS (1024 SPF)
Compression mode : Lossy
Delay relative to video : -33 ms
Stream size : 28.0 MiB (4%)
Language : English
Default : Yes
Forced : No
Audio #2
ID : 3
Format : AAC
Format/Info : Advanced Audio Codec
Format profile : LC
Codec ID : A_AAC
Duration : 12 min 20 s
Bit rate : 320 kb/s
Channel(s) : 2 channels
Channel positions : Front: L R
Sampling rate : 48.0 kHz
Frame rate : 46.875 FPS (1024 SPF)
Compression mode : Lossy
Delay relative to video : -33 ms
Stream size : 28.2 MiB (4%)
Title : MVO Kansai
Language : Russian
Default : No
Forced : No
Audio #3
ID : 4
Format : AAC
Format/Info : Advanced Audio Codec
Format profile : LC
Codec ID : A_AAC
Duration : 12 min 20 s
Bit rate : 192 kb/s
Channel(s) : 2 channels
Channel positions : Front: L R
Sampling rate : 48.0 kHz
Frame rate : 46.875 FPS (1024 SPF)
Compression mode : Lossy
Delay relative to video : -33 ms
Stream size : 17.0 MiB (2%)
Title : MVO SHIZA Project (Lizaveta & Yamaxa & San4Ees)
Language : Russian
Default : No
Forced : No
Text
ID : 5
Format : ASS
Codec ID : S_TEXT/ASS
Codec ID/Info : Advanced Sub Station Alpha
Duration : 12 min 7 s
Bit rate : 216 b/s
Count of elements : 196
Compression mode : Lossless
Stream size : 19.3 KiB (0%)
Title : OcA
Language : Russian
Default : Yes
Forced : No

Скриншоты

Том 2 (2014)

Видео: 1920x1080 AVC, 29.97 FPS
1-9: Main@L4.1 7900-10000kbps
10-12: Baseline@L4 5400kbps
Аудио:
- Английский (оригинал) (AAC-LC 44.1kHz (1, 10-12), 48kHz (2-9) , 318kbps (10-12 - 160kbps))
- MVO (любительский) SHIZA Project (Muvvekk, Ruri & Lizaveta) (AAC-LC 48 kHz, 192kbps)
Короткометражки "Мир Ремнанта" - только субтитры!
25.07.14 01: Best Day Ever (Самый лучший день) (00:14:44)
01.08.14 02: Welcome to Beacon (Добро пожаловать в Бикон) (00:13:13)
08.08.14 03: A Minor Hiccup (Лёгкая икота) (00:12:36)
15.08.14 04: Painting the Town (Развлекуха) (00:16:19)
22.08.14 World of Remnant - Dust (Мир Ремнанта - Прах) (00:02:16)
29.08.14 05: Extracurricular (Внеклассное) (00:12:41)
05.09.14 06: Burning the Candle (Недосып) (00:13:08)
12.09.14 07: Dance Dance Infiltration (Танцевальное проникновение) (00:14:49)
19.09.14 World of Remnant - Kingdoms (Мир Ремнанта - Королевства) (00:01:57)
26.09.14 08: Field Trip (Экскурсия) (00:12:13)
03.10.14 09: Search and Destroy (Найти и уничтожить) (00:15:48)
10.10.14 10: Mountain Glenn (Гора Гленн) (00:12:55)
17.10.14 World of Remnant - Grimm (Мир Ремнанта - Гримм) (00:03:36)
24.10.14 11: No Brakes (Без тормозов) (00:16:45)
31.10.14 12: Breach (Брешь) (00:17:55)
14.11.14 (только на DVD/BD) World of Remnant - Aura (Мир Ремнанта - Аура) (00:02:04)

Подробные технические данные

General
Unique ID : 251020420310023880383562459597512257752 (0xBCD8C63FEA6405C2886B09DE39D630D8)
Complete name : G:\RWBY [WEBRip]\Volume 2\RWBY V02E01 - Best Day Ever.mkv
Format : Matroska
Format version : Version 4 / Version 2
File size : 1.08 GiB
Duration : 14 min 44 s
Overall bit rate mode : Variable
Overall bit rate : 10.5 Mb/s
Movie name : RWBY Volume 2, Chapter 1 - Best Day Ever
Encoded date : UTC 2017-11-26 16:05:25
Writing application : mkvmerge v18.0.0 ('Apricity') 64-bit
Writing library : libebml v1.3.5 + libmatroska v1.4.8
Cover : Yes
Attachments : cover.jpg
Video
ID : 1
Format : AVC
Format/Info : Advanced Video Codec
Format profile : Main@L4.1
Format settings, CABAC : Yes
Format settings, RefFrames : 3 frames
Codec ID : V_MPEG4/ISO/AVC
Duration : 14 min 44 s
Bit rate mode : Variable
Bit rate : 9 955 kb/s
Maximum bit rate : 12.0 Mb/s
Width : 1 920 pixels
Height : 1 080 pixels
Display aspect ratio : 16:9
Frame rate mode : Constant
Frame rate : 29.970 (30000/1001) FPS
Standard : NTSC
Color space : YUV
Chroma subsampling : 4:2:0
Bit depth : 8 bits
Scan type : Progressive
Bits/(Pixel*Frame) : 0.160
Stream size : 1.03 GiB (95%)
Default : Yes
Forced : No
Color range : Limited
Audio #1
ID : 2
Format : AAC
Format/Info : Advanced Audio Codec
Format profile : LC
Codec ID : A_AAC
Duration : 14 min 44 s
Bit rate : 318 kb/s
Channel(s) : 2 channels
Channel positions : Front: L R
Sampling rate : 44.1 kHz
Frame rate : 43.066 FPS (1024 SPF)
Compression mode : Lossy
Delay relative to video : -33 ms
Stream size : 33.5 MiB (3%)
Language : English
Default : Yes
Forced : No
Audio #2
ID : 3
Format : AAC
Format/Info : Advanced Audio Codec
Format profile : LC
Codec ID : A_AAC
Duration : 14 min 44 s
Bit rate : 192 kb/s
Channel(s) : 2 channels
Channel positions : Front: L R
Sampling rate : 48.0 kHz
Frame rate : 46.875 FPS (1024 SPF)
Compression mode : Lossy
Delay relative to video : -33 ms
Stream size : 20.3 MiB (2%)
Title : MVO SHIZA Project (Muvvekk, Ruri & Lizaveta)
Language : Russian
Default : No
Forced : No
Text
ID : 4
Format : ASS
Codec ID : S_TEXT/ASS
Codec ID/Info : Advanced Sub Station Alpha
Duration : 14 min 25 s
Bit rate : 163 b/s
Count of elements : 258
Compression mode : Lossless
Stream size : 17.2 KiB (0%)
Title : OcA
Language : Russian
Default : Yes
Forced : No

Скриншоты

Том 3 (2015-2016)

Видео: 1920x1080 AVC Main@L3.1, 4800kbps, 24 FPS
Аудио:
- Английский (оригинал) (AAC-LC 44.1kHz, 126kbps)
- MVO (любительский) SHIZA Project (AAC-LC 48 kHz, 192kbps)
- DVO (любительский) alorian & marie_bibika (Anistar) (AC3 48 kHz, 128kbps)
Короткометражки "Мир Ремнанта" - только субтитры!
10.10.15 World of Remnant - Vytal Festival Tournament (Мир Ремнанта - Турнир Фестиваля Вайтэла) (00:02:40)
24.10.15 01: Round One (Первый раунд) (00:17:03)
31.10.15 02: New Challengers (Новые соперники) (00:14:36)
14.11.15 03: It's Brawl in the Family (Семейная ссора) (00:16:34)
21.11.15 World of Remnant - Huntsmen (Мир Ремнанта - Охотники) (00:02:37)
28.11.15 04: Lessons Learned (Полученные уроки) (00:14:35)
05.12.15 05: Never Miss a Beat (Не теряй ритм!) (00:13:09)
12.12.15 06: Fall (Осень) (00:18:19)
26.12.15 World of Remnant - Cross Continental Transmit System (Мир Ремнанта - Система межконтинентальной связи) (00:03:07)
02.01.16 07: Beginning of the End (Начало конца) (00:16:53)
09.01.16 08: Destiny (Судьба) (00:17:38)
16.01.16 09: PvP (00:12:28)
23.01.16 World of Remnant - The Four Maidens (Мир Ремнанта - Четыре девы) (00:07:02)
30.01.16 10: Battle of Beacon (Битва за Бикон) (00:16:47)
06.02.16 11: Heroes and Monsters (Герои и чудовища) (00:17:35)
13.02.16 12: End of the Beginning (Конец начала) (00:28:04)

Подробные технические данные

General
Unique ID : 225034113587434319013285658468962221488 (0xA94BFE68CD9587328F1F0CDA45073DB0)
Complete name : G:\RWBY [WEBRip]\Volume 3\RWBY V03E01 - Round One.mkv
Format : Matroska
Format version : Version 4 / Version 2
File size : 646 MiB
Duration : 17 min 3 s
Overall bit rate : 5 289 kb/s
Movie name : RWBY Volume 3, Chapter 1 - Round One
Encoded date : UTC 2017-11-26 16:19:11
Writing application : mkvmerge v18.0.0 ('Apricity') 64-bit
Writing library : libebml v1.3.5 + libmatroska v1.4.8
Cover : Yes
Attachments : cover.jpg
Video
ID : 1
Format : AVC
Format/Info : Advanced Video Codec
Format profile : Main@L3.1
Format settings, CABAC : Yes
Format settings, RefFrames : 4 frames
Codec ID : V_MPEG4/ISO/AVC
Duration : 17 min 3 s
Bit rate : 4 800 kb/s
Width : 1 920 pixels
Height : 1 080 pixels
Display aspect ratio : 16:9
Frame rate mode : Constant
Frame rate : 24.000 FPS
Color space : YUV
Chroma subsampling : 4:2:0
Bit depth : 8 bits
Scan type : Progressive
Bits/(Pixel*Frame) : 0.096
Stream size : 591 MiB (91%)
Writing library : x264 core 142
Encoding settings : cabac=1 / ref=3 / deblock=1:0:0 / analyse=0x1:0x111 / me=hex / subme=7 / psy=1 / psy_rd=1.00:0.00 / mixed_ref=1 / me_range=16 / chroma_me=1 / trellis=1 / 8x8dct=0 / cqm=0 / deadzone=21,11 / fast_pskip=1 / chroma_qp_offset=-2 / threads=48 / lookahead_threads=8 / sliced_threads=0 / nr=0 / decimate=1 / interlaced=0 / bluray_compat=0 / constrained_intra=0 / bframes=3 / b_pyramid=2 / b_adapt=1 / b_bias=0 / direct=1 / weightb=1 / open_gop=0 / weightp=2 / keyint=90 / keyint_min=9 / scenecut=0 / intra_refresh=0 / rc_lookahead=40 / rc=abr / mbtree=1 / bitrate=4800 / ratetol=1.0 / qcomp=0.60 / qpmin=0 / qpmax=69 / qpstep=4 / ip_ratio=1.40 / aq=1:1.00
Default : Yes
Forced : No
Audio #1
ID : 2
Format : AAC
Format/Info : Advanced Audio Codec
Format profile : LC
Codec ID : A_AAC
Duration : 17 min 3 s
Bit rate : 126 kb/s
Channel(s) : 2 channels
Channel positions : Front: L R
Sampling rate : 44.1 kHz
Frame rate : 43.066 FPS (1024 SPF)
Compression mode : Lossy
Delay relative to video : -46 ms
Stream size : 15.3 MiB (2%)
Language : English
Default : Yes
Forced : No
Audio #2
ID : 3
Format : AAC
Format/Info : Advanced Audio Codec
Format profile : LC
Codec ID : A_AAC
Duration : 17 min 3 s
Bit rate : 192 kb/s
Channel(s) : 2 channels
Channel positions : Front: L R
Sampling rate : 48.0 kHz
Frame rate : 46.875 FPS (1024 SPF)
Compression mode : Lossy
Delay relative to video : -46 ms
Stream size : 23.4 MiB (4%)
Title : MVO SHIZA Project
Language : Russian
Default : No
Forced : No
Audio #3
ID : 4
Format : AC-3
Format/Info : Audio Coding 3
Mode : Dolby Digital
Format settings, Endianness : Big
Codec ID : A_AC3
Duration : 17 min 3 s
Bit rate mode : Constant
Bit rate : 128 kb/s
Channel(s) : 2 channels
Channel positions : Front: L R
Sampling rate : 48.0 kHz
Frame rate : 31.250 FPS (1536 SPF)
Bit depth : 16 bits
Compression mode : Lossy
Delay relative to video : -46 ms
Stream size : 15.6 MiB (2%)
Title : DVO Anistar (alorian & marie_bibika)
Language : Russian
Service kind : Complete Main
Default : No
Forced : No
Text
ID : 5
Format : ASS
Codec ID : S_TEXT/ASS
Codec ID/Info : Advanced Sub Station Alpha
Duration : 16 min 21 s
Bit rate : 163 b/s
Count of elements : 248
Compression mode : Lossless
Stream size : 19.5 KiB (0%)
Title : OcA
Language : Russian
Default : Yes
Forced : No

Скриншоты

-RWBY Volume 4-5: Haven

Том 4 (2016-2017)

Видео: x264 1920x1080 24fps, ~4800 kbps
Аудио 1: Английский (AAC-LC 44.1 kHz stereo, 126 kbps)
Аудио 2: Русский, любительский многоголосый закадровый (SHIZA Project) (AAC-LC 48 kHz stereo, 192 kbps)
Субтитры 1: ASS, Русские - перевод Team WARDEN; перевод песен - TT
Субтитры 2: ASS, Русские - перевод TheDoctor Team
Субтитры 3: SRT, Английские
03.10.16 RWBY: Volume 4 Character Short (Трейлер 4 тома) (00:05:11) (MasterRip, H264 1920x1080@24fps, 6000kbps; AAC-LC 48kHz stereo, 317kbps)
17.10.16 World of Remnant: Vale (Мир Ремнанта: Вэйл) (00:02:24)
18.10.16 World of Remnant: Mistral (Мир Ремнанта: Мистрал) (00:02:20)
19.10.16 World of Remnant: Atlas (Мир Ремнанта: Атлас) (00:03:12)
20.10.16 World of Remnant: Vacuo (Мир Ремнанта: Вакуо) (00:02:58)

22.10.16 01: The Next Step (Следующий шаг) (00:19:51)
29.10.16 02: Remembrance (Воспоминания) (00:14:20)
05.11.16 03: Of Runaways and Stowaways (О беглецах и "зайцах") (00:18:17)

11.11.16 World of Remnant: Between Kingdoms (Мир Ремнанта: Между Королевствами) (00:03:26)
19.11.16 04: Family (Семья) (00:16:29) (+ английское аудио с YouTube - оргинальная дорожка была двойным моно)
26.11.16 World of Remnant: Faunus (Мир Ремнанта: Фавны) (00:04:40)
03.12.16 05: Menagerie (Менаджери) (00:12:38)
10.12.16 06: Tipping Point (Переломный момент) (00:16:24)

17.12.16 World of Remnant: Schnee Dust Company (Мир Ремнанта: Праховая Компания Шни) (00:04:28)
24.12.16 07: Punished (Наказаны) (00:16:46)
31.12.16 08: A Much Needed Talk (Необходимый разговор) (00:20:40)
07.01.17 09: Two Steps Forward, Two Steps Back (Два шага вперёд, два – назад) (00:15:26)

14.01.17 World of Remnant: The Great War (Мир Ремнанта: Великая война) (00:07:20)
21.01.17 10: Kuroyuri (Куроюри) (00:18:54)
28.01.17 11: Taking Control (Взять под контроль) (00:15:37)
04.02.17 12: No Safe Haven (Небезопасное убежище) (00:27:03)

Том 5 (2017-2018)

Аудио 1: Английский (AAC-LC 44.1 kHz stereo, 126 kbps)
Аудио 2: Русский, любительский многоголосый закадровый (SHIZA Project) (AAC-LC 48 kHz stereo, 192 kbps)
Субтитры: ASS, Русские - перевод Team WARDEN; перевод песен - Леон Каримов, в составе контейнера
17.07.17 Weiss Character Short (Трейлер Вайсс) (00:04:03)
04.09.17 Blake Character Short (Трейлер Блейк) (00:04:59)
09.10.17 Volume 5 Trailer (Трейлер 5 тома) (00:01:31)
14.10.17 Yang Character Short (Трейлер Янг) (00:04:15)

14.10.17 01: Welcome to Haven (Добро пожаловать в Хейвен) (00:23:03)
21.10.17 02: Dread in the Air (Страх в воздухе) (00:21:04)
28.10.17 03: Unforeseen Complications (Непредвиденные трудности) (00:18:35)
04.11.17 04: Lighting the Fire (Разжигая огонь) (00:16:15)
11.11.17 05: Necessary Sacrifice (Необходимая жертва) (00:16:58)
18.11.17 06: Known by its Song (Видно по полёту) (00:17:36)
25.11.17 07: Rest and Resolutions (Отдых и ответы) (00:12:48)
02.12.17 08: Alone Together (Одиночество вместе) (00:15:18)
09.12.17 09: A Perfect Storm (Идеальный шторм) (00:15:07)
16.12.17 10: True Colors (Истинные цвета) (00:19:26)
30.12.17 11: The More the Merrier (Вместе веселее) (00:16:05)
06.01.18 12: Vault of the Spring Maiden (Хранилище Девы Весны) (00:14:43)
13.01.18 13: Downfall (Провал) (00:15:28)
20.01.18 14: Haven's Fate (Судьба Хейвена) (00:24:28)

Подробные технические данные

General
Unique ID : 187987538838874552033248080672708314360 (0x8D6D1540F0745535B846350EEB4F44F8)
Complete name : G:\RWBY\RWBY [WEBRip]\Volume 5\RWBY V05E01 - Welcome to Haven.mkv
Format : Matroska
Format version : Version 4 / Version 2
File size : 878 MiB
Duration : 23 min 3 s
Overall bit rate : 5 322 kb/s
Movie name : RWBY Volume 5, Episode 1 - Welcome to Haven
Encoded date : UTC 2017-11-07 19:19:55
Writing application : mkvmerge v17.0.0 ('Be Ur Friend') 64-bit
Writing library : libebml v1.3.5 + libmatroska v1.4.8
Cover : Yes
Attachments : FuturaBookC.ttf / cover.jpg
Video
ID : 1
Format : AVC
Format/Info : Advanced Video Codec
Format profile : Main@L3.1
Format settings, CABAC : Yes
Format settings, RefFrames : 4 frames
Codec ID : V_MPEG4/ISO/AVC
Duration : 23 min 3 s
Bit rate : 4 800 kb/s
Width : 1 920 pixels
Height : 1 080 pixels
Display aspect ratio : 16:9
Frame rate mode : Constant
Frame rate : 24.000 FPS
Color space : YUV
Chroma subsampling : 4:2:0
Bit depth : 8 bits
Scan type : Progressive
Bits/(Pixel*Frame) : 0.096
Stream size : 825 MiB (94%)
Writing library : x264 core 148
Encoding settings : cabac=1 / ref=3 / deblock=1:0:0 / analyse=0x1:0x111 / me=hex / subme=7 / psy=1 / psy_rd=1.00:0.00 / mixed_ref=1 / me_range=16 / chroma_me=1 / trellis=1 / 8x8dct=0 / cqm=0 / deadzone=21,11 / fast_pskip=1 / chroma_qp_offset=-2 / threads=34 / lookahead_threads=5 / sliced_threads=0 / nr=0 / decimate=1 / interlaced=0 / bluray_compat=0 / constrained_intra=0 / bframes=3 / b_pyramid=2 / b_adapt=1 / b_bias=0 / direct=1 / weightb=1 / open_gop=0 / weightp=2 / keyint=90 / keyint_min=9 / scenecut=0 / intra_refresh=0 / rc_lookahead=40 / rc=abr / mbtree=1 / bitrate=4800 / ratetol=1.0 / qcomp=0.60 / qpmin=0 / qpmax=69 / qpstep=4 / ip_ratio=1.40 / aq=1:1.00
Default : Yes
Forced : No
Color range : Limited
Color primaries : BT.709
Transfer characteristics : BT.709
Matrix coefficients : BT.709
Audio #1
ID : 2
Format : AAC
Format/Info : Advanced Audio Codec
Format profile : LC
Codec ID : A_AAC
Duration : 23 min 3 s
Bit rate : 126 kb/s
Channel(s) : 2 channels
Channel positions : Front: L R
Sampling rate : 44.1 kHz
Frame rate : 43.066 FPS (1024 SPF)
Compression mode : Lossy
Delay relative to video : -46 ms
Stream size : 20.7 MiB (2%)
Language : English
Default : Yes
Forced : No
Audio #2
ID : 3
Format : AAC
Format/Info : Advanced Audio Codec
Format profile : LC
Codec ID : A_AAC
Duration : 23 min 3 s
Bit rate : 192 kb/s
Channel(s) : 2 channels
Channel positions : Front: L R
Sampling rate : 48.0 kHz
Frame rate : 46.875 FPS (1024 SPF)
Compression mode : Lossy
Delay relative to video : -46 ms
Stream size : 31.7 MiB (4%)
Title : Russian MVO (SHIZA Project)
Language : Russian
Default : No
Forced : No
Text
ID : 4
Format : ASS
Codec ID : S_TEXT/ASS
Codec ID/Info : Advanced Sub Station Alpha
Duration : 22 min 13 s
Bit rate : 160 b/s
Count of elements : 342
Compression mode : Lossless
Stream size : 26.1 KiB (0%)
Title : Russian (Team WARDEN)
Language : Russian
Default : Yes
Forced : No

Скриншоты

-RWBY Volume 6 - осенью 2018
[www.cybertorrent.ru].t2877.torrent 
Торрент: Зарегистрирован [ 2018-02-16 14:35 ] · CAECBFEDB4B322DB6EF644F8F5D4CBDFE92AEB2F

Скачать .torrent

Скачать

59 KB

Статус: проверено
Скачан: 0 раз
Размер: 41,28 GB
Профиль [ЛС]
Показать сообщения:    

Текущее время: 18-Ноя 00:03

Часовой пояс: UTC ± 0



Вы не можете начинать темы
Вы не можете отвечать на сообщения
Вы не можете редактировать свои сообщения
Вы не можете удалять свои сообщения
Вы не можете голосовать в опросах
Вы не можете прикреплять файлы к сообщениям
Вы можете скачивать файлы
Torrents24.ru открытый BitTorrent Torrents24.pl открытый BitTorrent CyberTorrent.ru открытый BitTorrent BtList.ru рейтинг BitTorrent трекеров Яндекс.Метрика