BitTorrent клиенты



Заложник / Hostage (Флоран Эмилио Сири / Florent Emilio Siri) [2005, США, Германия, боевик, триллер, драма, криминал, детектив, DVD5] Dub + Sub Rus + Original Eng

Ответить на тему
 
Автор Сообщение

Zlo ®

Пол: Не указан

Стаж: 1 год

Сообщений: 648

Создавать темы 08-Фев-2018 15:46

[Цитировать]

Заложник / Hostage
Страна: США, Германия
Жанр: боевик, триллер, драма, криминал, детектив
Год выпуска: 2005
Продолжительность: 01:48:40
Перевод: Профессиональный (дублированный)
Субтитры: русские
Оригинальная аудиодорожка: английская
Режиссер: Флоран Эмилио Сири / Florent Emilio Siri
В ролях: Брюс Уиллис, Кевин Поллак, Джонатан Такер, Бен Фостер, Джимми Беннетт, Мишель Хорн, Маршалл Оллман, Серена Скотт Томас, Румер Уиллис, Роберт Неппер
Описание: Джеф Тэлли, бывший переговорщик секретных служб Лос-Анджелеса, переезжает работать в провинциальный городок, оставив жену и дочь в Лос Анджелесе. Когда в его округе происходит ограбление, три преступника берут в заложники ничего не подозревающую семью.
Но у отца семейства есть тайна, которая могла бы поставить под угрозу его семью, а один из преступников уже начал терять самообладание…. Джеф Тэлли должен сделать все, что в его силах, чтобы эта ночь не стала последней для невинных людей.
Дополнительные материалы: Киноролик, Видеоролик, Смотрите на DVD
Меню: есть, статичное
Тип релиза: DVD5
Контейнер: DVD-Video
Видео: PAL 16:9 (720x576(0.422)) MPEG Video, 25,000 кадр/сек, 4375 Кбит/сек
Аудио: Russian (Dolby AC-3, 6ch) 384 Кбит/сек, 48.0 КГц
Аудио 2: English (Dolby AC-3, 6ch) 384 Кбит/сек, 48.0 КГц

DVDInfo

Size: 4.01 Gb ( 4 208 556 KBytes ) - DVD5
Enabled regions: 1, 2, 3, 4, 5, 6, 7, 8
VTS_01 :
Play Length: 00:00:01+00:00:38+00:00:46+00:00:40+00:00:39+00:00:59
Video: PAL 4:3 (720x576) VBR
Audio:
Russian (Dolby AC3, 6 ch)
English (Dolby AC3, 6 ch)
VTS_02 :
Play Length: 01:48:40
Video: PAL 16:9 (720x576) VBR, Auto Letterboxed
Audio:
Russian (Dolby AC3, 6 ch)
English (Dolby AC3, 6 ch)
Subtitles:
Russian
VTS_03 :
Play Length: 00:02:20
Video: PAL 16:9 (720x576) VBR, Auto Letterboxed
Audio:
Russian (Dolby AC3, 6 ch)
English (Dolby AC3, 6 ch)
Menu Video:
PAL 4:3 (720x576) VBR
Menu Audio:
Not specified (Dolby AC3, 6 ch)
Menu Subtitles:
Not specified
Menu Russian Language Unit :
Root Menu
Audio Menu
Chapter (PTT) Menu
Subpicture Menu

MediaInfo

Общее
Полное имя : Hostage\VIDEO_TS\VTS_02_1.VOB
Формат : MPEG-PS
Размер файла : 1024 Мбайт
Продолжительность : 27 м. 16 с.
Режим общего битрейта : Переменный
Общий поток : 5247 Кбит/сек
Библиотека кодирования : encoded by TMPGEnc (ver. 2.521.58.169)
Видео
Идентификатор : 224 (0xE0)
Формат : MPEG Video
Версия формата : Version 2
Профиль формата : Main@Main
Параметр BVOP формата : Да
Параметр матрицы формата : Выборочная
Параметр GOP формата : M=3, N=13
Структура изображения : Frame
Продолжительность : 27 м. 16 с.
Вид битрейта : Переменный
Битрейт : 4375 Кбит/сек
Максимальный битрейт : 8000 Кбит/сек
Ширина : 720 пикселей
Высота : 576 пикселей
Соотношение сторон : 16:9
Частота кадров : 25,000 кадров/сек
Стандарт вещания : PAL
Цветовое пространство : YUV
Субдискретизация насыщенности : 4:2:0
Битовая глубина : 8 бит
Тип развёртки : Чересстрочная
Порядок развёртки : Верхнее поле первое
Метод сжатия : С потерями
Бит/(Пиксели*Кадры) : 0.422
Временной код первого кадра : 00:00:00:00
Оригинал временного кода : Group of pictures header
GOP, открыто/закрыто : Закрыто
Размер потока : 854 Мбайт (83%)
Библиотека кодирования : TMPGEnc 2.521.58.169
Основные цвета : BT.601 PAL
Характеристики трансфера : BT.470 System B, BT.470 System G
Коэффициенты матрицы : FCC 73.682
Аудио #1
Идентификатор : 189 (0xBD)-128 (0x80)
Формат : AC-3
Формат/Информация : Audio Coding 3
Параметр Endianness формата : Big
Режим смешивания : DVD-Video
Продолжительность : 27 м. 16 с.
Вид битрейта : Постоянный
Битрейт : 384 Кбит/сек
Каналы : 6 каналов
Расположение каналов : Front: L C R, Side: L R, LFE
Частота : 48,0 КГц
Частота кадров : 31,250 кадров/сек (1536 spf)
Битовая глубина : 16 бит
Метод сжатия : С потерями
Размер потока : 74,9 Мбайт (7%)
ServiceKind/String : Complete Main
Аудио #2
Идентификатор : 189 (0xBD)-129 (0x81)
Формат : AC-3
Формат/Информация : Audio Coding 3
Параметр Endianness формата : Big
Режим смешивания : DVD-Video
Продолжительность : 27 м. 16 с.
Вид битрейта : Постоянный
Битрейт : 384 Кбит/сек
Каналы : 6 каналов
Расположение каналов : Front: L C R, Side: L R, LFE
Частота : 48,0 КГц
Частота кадров : 31,250 кадров/сек (1536 spf)
Битовая глубина : 16 бит
Метод сжатия : С потерями
Размер потока : 74,9 Мбайт (7%)
ServiceKind/String : Complete Main
Текст
Идентификатор : 189 (0xBD)-32 (0x20)
Формат : RLE
Формат/Информация : Run-length encoding
Режим смешивания : DVD-Video

Скриншоты меню

Скриншоты

[Профиль] [ЛС]
Показать сообщения:    
Ответить на тему

Текущее время: 23-Фев 00:28

Часовой пояс: UTC + 3



Вы не можете начинать темы
Вы не можете отвечать на сообщения
Вы не можете редактировать свои сообщения
Вы не можете удалять свои сообщения
Вы не можете голосовать в опросах
Вы не можете прикреплять файлы к сообщениям
Вы можете скачивать файлы