BitTorrent клиенты



Двухсотлетний человек / Bicentennial Man (Крис Коламбус / Chris Columbus) [1999, США, Германия, фантастика, драма, комедия, DVD9] Dub + MVO + Original Eng

Ответить на тему
 
Автор Сообщение

Zlo ®

Пол: Не указан

Стаж: 1 год

Сообщений: 648

Создавать темы 08-Фев-2018 15:46

[Цитировать]

Двухсотлетний человек / Bicentennial Man
Страна: США, Германия
Жанр: фантастика, драма, комедия
Год выпуска: 1999
Продолжительность: 02:06:00
Перевод: Профессиональный (дублированный)
Перевод 2: Профессиональный (многоголосый, закадровый)
Субтитры: английские, русские
Оригинальная аудиодорожка: английская
Режиссер: Крис Коламбус / Chris Columbus
В ролях: Робин Уильямс, Эмбет Дэвидц, Сэм Нил, Оливер Платт, Кирстен Уоррен, Венди Крюсон, Халли Кейт Айзенберг, Линдзи Летерман, Анджела Лэндис, Джон Майкл Хиггинс
Описание: Начало нового тысячелетия; происходит прорыв в глобальных технологиях. Люди уже не заводят дома собак и кошек: они покупают себе роботов. Вот и семья Мартинов приобретает себе необычный подарок: робота нового поколения NDR-114, а в обычной жизни просто Эндрю.
Купленный как прибор, запрограммированный для выполнения домашней работы, Эндрю вдруг начинает испытывать странные ощущения. Он еще не знает, что это называется чувствами.
Дополнительные материалы: Ролик, Рассказ о съемках, Создатели фильма
Меню: есть, статичное
Тип релиза: DVD9
Контейнер: DVD-Video
Видео: PAL 16:9 (720x576(0.549)) MPEG Video, 25,000 кадр/сек, 5694 Кбит/сек
Аудио: Russian (Dolby AC-3, 6ch) 448 Кбит/сек, 48.0 КГц
Аудио 2: Russian (Dolby AC-3, 6ch) 448 Кбит/сек, 48.0 КГц
Аудио 3: English (Dolby AC-3, 6ch) 448 Кбит/сек, 48.0 КГц

Доп. информация по релизу

В доп. материалах перевода и русских субтитров нет!

MediaInfo

Общее
Полное имя : 200-letniy_chelovek[torrents.ru]\VTS_01_1.VOB
Формат : MPEG-PS
Размер файла : 1024 Мбайт
Продолжительность : 19 м. 56 с.
Режим общего битрейта : Переменный
Общий поток : 7181 Кбит/сек
Видео
Идентификатор : 224 (0xE0)
Формат : MPEG Video
Версия формата : Version 2
Профиль формата : Main@Main
Параметр BVOP формата : Да
Параметр матрицы формата : Выборочная
Параметр GOP формата : M=3, N=12
Продолжительность : 19 м. 56 с.
Вид битрейта : Переменный
Битрейт : 5694 Кбит/сек
Максимальный битрейт : 9800 Кбит/сек
Ширина : 720 пикселей
Высота : 576 пикселей
Соотношение сторон : 16:9
Частота кадров : 25,000 кадров/сек
Стандарт вещания : PAL
Цветовое пространство : YUV
Субдискретизация насыщенности : 4:2:0
Битовая глубина : 8 бит
Метод сжатия : С потерями
Бит/(Пиксели*Кадры) : 0.549
Размер потока : 812 Мбайт (79%)
Аудио #1
Идентификатор : 189 (0xBD)-128 (0x80)
Формат : AC-3
Формат/Информация : Audio Coding 3
Параметр Endianness формата : Big
Режим смешивания : DVD-Video
Продолжительность : 19 м. 56 с.
Вид битрейта : Постоянный
Битрейт : 448 Кбит/сек
Каналы : 6 каналов
Расположение каналов : Front: L C R, Side: L R, LFE
Частота : 48,0 КГц
Частота кадров : 31,250 кадров/сек (1536 spf)
Битовая глубина : 16 бит
Метод сжатия : С потерями
Размер потока : 63,9 Мбайт (6%)
ServiceKind/String : Complete Main
Аудио #2
Идентификатор : 189 (0xBD)-129 (0x81)
Формат : AC-3
Формат/Информация : Audio Coding 3
Параметр Endianness формата : Big
Режим смешивания : DVD-Video
Продолжительность : 19 м. 56 с.
Вид битрейта : Постоянный
Битрейт : 448 Кбит/сек
Каналы : 6 каналов
Расположение каналов : Front: L C R, Side: L R, LFE
Частота : 48,0 КГц
Частота кадров : 31,250 кадров/сек (1536 spf)
Битовая глубина : 16 бит
Метод сжатия : С потерями
Размер потока : 63,9 Мбайт (6%)
ServiceKind/String : Complete Main
Аудио #3
Идентификатор : 189 (0xBD)-130 (0x82)
Формат : AC-3
Формат/Информация : Audio Coding 3
Параметр Endianness формата : Big
Режим смешивания : DVD-Video
Продолжительность : 19 м. 56 с.
Вид битрейта : Постоянный
Битрейт : 448 Кбит/сек
Каналы : 6 каналов
Расположение каналов : Front: L C R, Side: L R, LFE
Частота : 48,0 КГц
Частота кадров : 31,250 кадров/сек (1536 spf)
Битовая глубина : 16 бит
Метод сжатия : С потерями
Размер потока : 63,9 Мбайт (6%)
ServiceKind/String : Complete Main
Текст #1
Идентификатор : 189 (0xBD)-32 (0x20)
Формат : RLE
Формат/Информация : Run-length encoding
Режим смешивания : DVD-Video
Продолжительность : 19 м. 55 с.
Текст #2
Идентификатор : 189 (0xBD)-33 (0x21)
Формат : RLE
Формат/Информация : Run-length encoding
Режим смешивания : DVD-Video
Продолжительность : 19 м. 55 с.

Скриншоты меню

Скриншоты

Скриншоты доп. материалов

[Профиль] [ЛС]
Показать сообщения:    
Ответить на тему

Текущее время: 23-Фев 00:08

Часовой пояс: UTC + 3



Вы не можете начинать темы
Вы не можете отвечать на сообщения
Вы не можете редактировать свои сообщения
Вы не можете удалять свои сообщения
Вы не можете голосовать в опросах
Вы не можете прикреплять файлы к сообщениям
Вы можете скачивать файлы