BitTorrent клиенты



Американская дочь (Карен Шахназаров) [1995, Казахстан, Россия, драма, комедия, DVD5] Original Rus

Ответить на тему
 
Автор Сообщение

Ангел ®

Пол: Не указан

Стаж: 1 год

Сообщений: 954

Создавать темы 08-Фев-2018 15:46

[Цитировать]

Американская дочь
Страна: Казахстан, Россия
Жанр: драма, комедия
Год выпуска: 1995
Продолжительность: 1:33:00
Перевод: Не требуется
Субтитры: нет
Оригинальная аудиодорожка: русская
Режиссер: Карен Шахназаров
В ролях: Владимир Машков, Эллисон Уитбек, Мария Шукшина, Армен Джигарханян, Стивен Епп, Джонни Хэйес, Малкольм Браунсон, Дженнифер Дэвис, Дэйл Моррис, Тедди Лэйн мл.
Описание: Герой фильма — музыкант одного из московских ресторанов — прилетает в Сан-Франциско, чтобы… похитить свою дочь. Маленькую Анюту тайно увезла с собой его бывшая жена, выйдя замуж за респектабельного американца.
После трогательной встречи папы с дочкой начинается их путешествие автостопом по всей Америке, полное комедийных ситуаций и приключений…
Меню: есть, анимированное
Тип релиза: DVD5
Контейнер: DVD-Video
Видео: PAL 4:3 (720x576(0.611)) MPEG Video, 25,000 кадр/сек, 6337 Кбит/сек
Аудио: Russian (Dolby AC-3, 2 ch) 192 Кбит/сек, 48.0 КГц

MediaInfo

Общее
Полное имя : Американская дочь\VIDEO_TS\VTS_01_1.VOB
Формат : MPEG-PS
Размер файла : 1024 Мбайт
Продолжительность : 21 м. 29 с.
Режим общего битрейта : Постоянный
Общий поток : 6661 Кбит/сек
Видео
Идентификатор : 224 (0xE0)
Формат : MPEG Video
Версия формата : Version 2
Профиль формата : Main@Main
Параметр BVOP формата : Да
Параметр матрицы формата : По умолчанию
Параметр GOP формата : Variable
Структура изображения : Field
Продолжительность : 21 м. 29 с.
Вид битрейта : Постоянный
Битрейт : 6337 Кбит/сек
Максимальный битрейт : 6000 Кбит/сек
Ширина : 720 пикселей
Высота : 576 пикселей
Соотношение сторон : 4:3
Частота кадров : 25,000 кадров/сек
Стандарт вещания : PAL
Цветовое пространство : YUV
Субдискретизация насыщенности : 4:2:0
Битовая глубина : 8 бит
Тип развёртки : Чересстрочная
Порядок развёртки : Верхнее поле первое
Метод сжатия : С потерями
Бит/(Пиксели*Кадры) : 0.611
Временной код первого кадра : 00:55:16:16
Оригинал временного кода : Group of pictures header
GOP, открыто/закрыто : Открыто
Размер потока : 974 Мбайт (95%)
Основные цвета : BT.601 PAL
Характеристики трансфера : BT.470 System B, BT.470 System G
Коэффициенты матрицы : BT.601
Аудио
Идентификатор : 189 (0xBD)-128 (0x80)
Формат : AC-3
Формат/Информация : Audio Coding 3
Параметр Endianness формата : Big
Режим смешивания : DVD-Video
Продолжительность : 6 с. 432 мс.
Вид битрейта : Постоянный
Битрейт : 192 Кбит/сек
Каналы : 2 канала
Расположение каналов : Front: L R
Частота : 48,0 КГц
Частота кадров : 31,250 кадров/сек (1536 spf)
Битовая глубина : 16 бит
Метод сжатия : С потерями
Размер потока : 151 Кбайт (0%)
ServiceKind/String : Complete Main

Скриншоты меню

Скриншоты

[Профиль] [ЛС]
Показать сообщения:    
Ответить на тему

Текущее время: 19-Фев 16:19

Часовой пояс: UTC + 3



Вы не можете начинать темы
Вы не можете отвечать на сообщения
Вы не можете редактировать свои сообщения
Вы не можете удалять свои сообщения
Вы не можете голосовать в опросах
Вы не можете прикреплять файлы к сообщениям
Вы можете скачивать файлы