Статистика раздачи
Размер:  9,35 GB   |    Зарегистрирован:  5 месяцев 26 дней   |    Скачан:  0 раз

Полного источника не было: Никогда

Личеров:  1  [  0 KB/s  ]  
 
   
 
 

deltacatsplus ®

Пол:
Не указан
Стаж:
5 месяцев 27 дней
Сообщений:
202

Точь в точь 4 сезон 04 выпуск от 2016.10.16
Дата/Год выпуска: 2016
Страна: Россия
Жанр: Тв-шоу
Продолжительность: 02:22:14
Перевод: Не требуется
Телеканал: Первый канал HD
Описание: В эфире стартует новый сезон одного из самых популярных в стране музыкально-развлекательных телепроектов! Зрителей вновь ждут невероятные сценические перевоплощения и самые известные хиты! В этот раз за звание победителя проекта поспорят те, кому однажды уже приходилось подниматься на сцену "Точь-в-Точь". Участники - Никита Пресняков, Родион Газманов, Ирина Дубцова, Азиза, Аглая Шиловская, Лада Дэнс, Глеб Матвейчук, Наталья Подольская, Евгений Дятлов, Дмитрий Колдун, Ксана Сергиенко и Елена Максимова. Новый сезон "Точь-в-Точь", пожалуй, самый разноплановый - участники проекта создали более сотни почти аутентичных образов великих исполнителей прошлых лет и современных популярных музыкантов. Создатели шоу не обошли вниманием ни один музыкальный жанр, будь то классические партии или тяжелый рок, целая программа посвящена киношлягерам в исполнении знаменитых советских и российских актеров, в других выпусках участники проводят музыкальные дуэли (когда двое артистов выступают в образе одного исполнителя). Каждый номер шоу - полное погружение в создаваемый образ: артист воспроизводит не только голос и хореографию, но также внешний облик и манеру держаться на сцене. Нередко участникам "Точь-в-Точь" приходится "менять пол". Больше всего таких выступлений у Азизы, Лады Дэнс и Ксаны Сергиенко (по 4). Тренд "перевоплощения" подхватят все члены жюри, третейский судья и ведущий, а также каждый из приглашенных гостей (чаще всего в этом будет замечен Максим Галкин, уже принимавший участие в "Точь-в-Точь").
Жюри: Дмитрий Дюжев, Любовь Казарновская, Леонид Ярмольник, Михаил Боярский.
Участники: Никита Пресняков, Родион Газманов, Ирина Дубцова, Азиза, Аглая Шиловская, Лада Дэнс, Глеб Матвейчук, Наталья Подольская, Евгений Дятлов, Дмитрий Колдун, Ксана Сергиенко и Елена Максимова.
Качество: HDTV 1080i
Контейнер: TS
Видео кодек: H.264
Аудио кодек: AC3, MP2
Видео: H264; 1920x1080 (16:9); 25.000 fps; ~8 363 Kbps
Аудио 1: AC3, 6 channels, 48000Hz, 384 Кбит/сек
Аудио 2: MPEG Audio Version 1 Layer 2, 48000Hz, 2 channels stereo 192 Кбит/сек
Источник: Рир от olegka7373

MediaInfo

General
ID : 1 (0x1)
Complete name : E:\Temp\Toch' v toch'4.(04.Vypusk).HDTV(1080i).GeneralFilm.ts
Format : MPEG-TS
File size : 9.35 GiB
Duration : 2 h 22 min
Overall bit rate mode : Variable
Overall bit rate : 9 410 kb/s
Video
ID : 1904 (0x770)
Menu ID : 80 (0x50)
Format : AVC
Format/Info : Advanced Video Codec
Format profile : High@L4
Format settings, CABAC : Yes
Format settings, ReFrames : 3 frames
Codec ID : 27
Duration : 2 h 22 min
Bit rate : 8 363 kb/s
Width : 1 920 pixels
Height : 1 080 pixels
Display aspect ratio : 16:9
Frame rate : 25.000 FPS
Standard : Component
Color space : YUV
Chroma subsampling : 4:2:0
Bit depth : 8 bits
Scan type : Interlaced
Scan type, store method : Separated fields
Scan order : Top Field First
Bits/(Pixel*Frame) : 0.161
Stream size : 8.31 GiB (89%)
Color range : Limited
Color primaries : BT.709
Transfer characteristics : BT.709
Matrix coefficients : BT.709
Audio #1
ID : 2904 (0xB58)
Menu ID : 80 (0x50)
Format : AC-3
Format/Info : Audio Coding 3
Mode extension : CM (complete main)
Format settings, Endianness : Big
Codec ID : 6
Duration : 2 h 22 min
Bit rate mode : Constant
Bit rate : 384 kb/s
Channel(s) : 6 channels
Channel positions : Front: L C R, Side: L R, LFE
Sampling rate : 48.0 kHz
Frame rate : 31.250 FPS (1536 spf)
Compression mode : Lossy
Delay relative to video : -80 ms
Stream size : 391 MiB (4%)
Language : Russian
Audio #2
ID : 2905 (0xB59)
Menu ID : 80 (0x50)
Format : MPEG Audio
Format version : Version 1
Format profile : Layer 2
Codec ID : 3
Duration : 2 h 22 min
Bit rate mode : Constant
Bit rate : 192 kb/s
Channel(s) : 2 channels
Sampling rate : 48.0 kHz
Compression mode : Lossy
Delay relative to video : -80 ms
Stream size : 195 MiB (2%)
Language : Russian

Скриншоты

[www.cybertorrent.ru].t2851.torrent 
Торрент: Зарегистрирован [ 2018-02-16 14:35 ] · 567153A8D4614AC3BC80E7EEC0300A42C520C130

Скачать .torrent

Скачать

47 KB

Статус: проверено
Скачан: 0 раз
Размер: 9,35 GB
Профиль [ЛС]
Показать сообщения:    

Текущее время: 15-Авг 04:59

Часовой пояс: UTC ± 0



Вы не можете начинать темы
Вы не можете отвечать на сообщения
Вы не можете редактировать свои сообщения
Вы не можете удалять свои сообщения
Вы не можете голосовать в опросах
Вы не можете прикреплять файлы к сообщениям
Вы можете скачивать файлы
Torrents24.ru открытый BitTorrent Torrents24.pl открытый BitTorrent CyberTorrent.ru открытый BitTorrent BtList.ru рейтинг BitTorrent трекеров Яндекс.Метрика