Статистика раздачи
Размер:  750 MB   |    Зарегистрирован:  9 месяцев 25 дней   |    Скачан:  0 раз

Полного источника не было: Никогда

Личеров:  1  [  0 KB/s  ]  
 
   
 
 

DR_KTO ®

Пол:
Не указан
Стаж:
9 месяцев 26 дней
Сообщений:
105

Простая наука (65 вып.)

Дата/Год выпуска: 2013
Страна: Россия
Жанр: Детская, образовательная
Продолжительность: ~00:02:00 х 65
Перевод: Не требуется
Русские субтитры: нет
Ведущий: Денис Мохов
Телеканал: Карусель
Описание: «Простая наука» — это серия занимательных научных опытов. Все они совершенно безопасны, и большинство из них можно повторить дома. Вы увидите сам опыт и услышите его научное объяснение. Посмотрев нашу программу, вы убедитесь, что наука может быть очень увлекательной!
Сэмпл: http://multi-up.com/1122760
Релиз:
качество: SATRip
формат: AVI
Видео: 704x400 (16:9), 25 fps, XviD build 64 ~800 kbps avg, 0.11 bit/pixel
Аудио: 48 kHz, MPEG Layer 3, 2 ch, ~128.00 kbps avg

Список выпусков/серий

01. Шарик - магнит.avi
02. Шарик - йог.avi
03. Нелопающийся воздушный шарик.avi
04. Шарик на воздушной привязи.avi
05. Весёлая регата.avi
06. Живая радуга.avi
07. Апельсин - плотник.avi
08. Невероятные гвозди.avi
09. Живые бумажные цветы.avi
10. Огнеупорный шарик.avi
11. Надуватель для шарика.avi
12. Дырявый, не пропускающий воду, пакет.avi
13. Непроницаемая ткань.avi
14. Бумажная крышка.avi
15. Химические водоросли.avi
16. Фараонова змея.avi
17. Парящие вилки.avi
18. Пирамидка на ножах.avi
19. Тушим свечку пустотой.avi
20. Зажигалка из жвачки.avi
21. Яйцо в бутылке.avi
22. Лава - лампа.avi
23. Снег из подгузников.avi
24. Очень тяжёлая газета.avi
25. Рисунки на молоке.avi
27. Свет в струе воды.avi
28. Переводилка из карандашей.avi
29. Подводная лодка в бутылке.avi
31. Магнитная пушка.avi
32. Магнитные танцы.avi
33. Много пены из ничего.avi
43. Неньютоновская жидкость..avi
44. Тяжёлая газировка.avi
45. Газировка на ребре.avi
46. Чистим ложки до блеска.avi
47. Цветная яичница.avi
48. Восковой витраж.avi
49. Цветные разводы.avi
50. Краснокочанная химия.avi
51. Вода льётся в бутылку.avi
52. Стреляющий апельсин.avi
53. Капли и вода.avi
54. Виноград в бокале.avi
55. Реактивный пакет.avi
56. Сервировка а-ля Ньютон.avi
57. Несгораемая коробка из-под молока.avi
58. Изюм в газировке.avi
59. Магнит и виноград.avi
60. Тушим свечку силой звука.avi
61. Вода как проводник.avi
62. Молоток-эквилибрист.avi
63. Поверхностное натяжение и нитка.avi
64. Мыльный ускоритель.avi
65. Рисунки на воде.avi
66. Спички и магнит.avi
67. Телефон из стаканчиков.avi
68. Электромагнит.avi
69. Графитовый реостат.avi
70. Вечный двигатель из свечек.avi
75. Тарелки на острие иглы.avi
76. Зеркальная свеча.avi
77. Подводная салфетка.avi
78. Достаём монетку.avi
79. Компас и электромагнитное поле.avi
80. Одноразовый патефон.avi

MediaInfo

Полное имя : D:\01 РАЗДАЧИ ШОУ\Простая наука\ПРОСТАЯ_НАУКА\01. Шарик - магнит.avi
Формат : AVI
Формат/Информация : Audio Video Interleave
Размер файла : 12,4 Мбайт
Продолжительность : 1 м. 50 с.
Общий поток : 947 Кбит/сек
Программа кодирования : Lavf54.63.100
Видео
Идентификатор : 0
Формат : MPEG-4 Visual
Профиль формата : Advanced Simple@L5
Параметр BVOP формата : 2
Параметр QPel формата : Нет
Параметр GMC формата : Без точки перехода
Параметр матрицы формата : Default (H.263)
Идентификатор кодека : XVID
Идентификатор кодека/Подсказка : XviD
Продолжительность : 1 м. 50 с.
Битрейт : 805 Кбит/сек
Ширина : 704 пикселя
Высота : 400 пикселей
Соотношение сторон : 16:9
Частота кадров : 25,000 кадров/сек
Цветовое пространство : YUV
Субдискретизация насыщенности : 4:2:0
Битовая глубина : 8 бит
Тип развёртки : Прогрессивная
Метод сжатия : С потерями
Бит/(Пиксели*Кадры) : 0.114
Размер потока : 10,6 Мбайт (85%)
Библиотека кодирования : XviD 64
Аудио
Идентификатор : 1
Формат : MPEG Audio
Версия формата : Version 1
Профиль формата : Layer 3
Идентификатор кодека : 55
Идентификатор кодека/Подсказка : MP3
Продолжительность : 1 м. 49 с.
Вид битрейта : Постоянный
Битрейт : 128 Кбит/сек
Каналы : 2 канала
Частота : 48,0 КГц
Метод сжатия : С потерями
Размер потока : 1,68 Мбайт (14%)
Выравнивание : Соединение по промежуткам
Продолжительность промежутка : 24 мс. (0,60 видеокадр)
Время предзагрузки промежутка : 24 мс.

Скриншоты

[www.cybertorrent.ru].t2848.torrent 
Торрент: Зарегистрирован [ 2018-02-16 14:35 ] · FDE0436B5D6135D40858385B0BF26525E39E4BB3

Скачать .torrent

Скачать

20 KB

Статус: проверено
Скачан: 0 раз
Размер: 750 MB
Профиль [ЛС]
Показать сообщения:    

Текущее время: 13-Дек 20:39

Часовой пояс: UTC ± 0



Вы не можете начинать темы
Вы не можете отвечать на сообщения
Вы не можете редактировать свои сообщения
Вы не можете удалять свои сообщения
Вы не можете голосовать в опросах
Вы не можете прикреплять файлы к сообщениям
Вы можете скачивать файлы
Torrents24.ru открытый BitTorrent Torrents24.pl открытый BitTorrent CyberTorrent.ru открытый BitTorrent BtList.ru рейтинг BitTorrent трекеров Яндекс.Метрика