Статистика раздачи
Размер:  8,5 GB   |    Зарегистрирован:  4 месяца 2 дня   |    Скачан:  0 раз

Полного источника не было: Никогда

 
   
 
 

irkutsk ®

Пол:
Не указан
Стаж:
4 месяца 3 дня
Сообщений:
256

Южный Парк / South Park Страна: США
Жанр: комедия, мультсериал
Продолжительность: ~ 00:20:00
Год выпуска: 2016
Перевод: Профессиональный (двухголосый закадровый) True Dubbing Studio по заказу Paramount Comedy
Русские субтитры: нет
Режиссёр: Мэтт Стоун, Трей Паркер
Описание: Южный Парк / South Park — американский мультсериал, созданный Мэттом Стоуном и Треем Паркером. Иногда название переводится также как «Саут-Парк» или «Саус-Парк». Выпускается кабельным телеканалом Comedy Central с 1997 года. Основу сюжета составляют приключения четырёх мальчиков и их друзей, живущих в маленьком городке Саут-Парк, штат Колорадо. Сериал высмеивает недостатки американской культуры и текущие мировые события, а также подвергает критике множество глубоких убеждений и табу посредством пародии и чёрного юмора. «Южный Парк» выходит поздно вечером и позиционируется как мультфильм для взрослых.
Ссылка на предыдущие и альтернативные раздачи: http://cybertorrent.ru/tracker.php?nm=South%20Park
Семпл: http://multi-up.com/1121175
Качество: WEB-DL 1080p
Формат: MKV
Видео: x264, 1916x1076 (16:9), 23.976 fps, ~5000 kbps
Аудио 1: AC3, 48 kHz, 2 ch, 192 kbps [Русский, Paramount Comedy]
Аудио 2: AAC, 48 kHz, 2 ch, 150 kbps [Английский]
Субтитры: Английские

Релиз

Khoren
за звук спасибо Tom Soyer
Перевод: Профессиональный двухголосый [True Dubbing Studio по заказу Paramount Comedy]

Подробные технические данные

General
Unique ID : 238946672209626080440746479236448486795 (0xB3C3748238AA041C8A46FB0F7897858B)
Complete name : D:\Torrent\South.Park.S20.1080p.WEB-DL.H.264.Paramount\South.Park.S20E01.Member.Berries.1080p.WEB-DL.H.264.Paramount.mkv
Format : Matroska
Format version : Version 4 / Version 2
File size : 868 MiB
Duration : 22 min 10 s
Overall bit rate : 5 473 kb/s
Encoded date : UTC 2016-10-02 17:46:58
Writing application : mkvmerge v9.4.2 ('So High') 64bit
Writing library : libebml v1.3.4 + libmatroska v1.4.5
Cover : Yes
Attachments : cover.sp.jpg
Video
ID : 1
Format : AVC
Format/Info : Advanced Video Codec
Format profile : High@L4
Format settings, CABAC : Yes
Format settings, ReFrames : 4 frames
Codec ID : V_MPEG4/ISO/AVC
Duration : 22 min 10 s
Bit rate : 5 124 kb/s
Width : 1 916 pixels
Height : 1 076 pixels
Display aspect ratio : 16:9
Frame rate mode : Constant
Frame rate : 23.976 (23976/1000) FPS
Color space : YUV
Chroma subsampling : 4:2:0
Bit depth : 8 bits
Scan type : Progressive
Bits/(Pixel*Frame) : 0.104
Stream size : 813 MiB (94%)
Language : English
Default : Yes
Forced : No
Color range : Limited
Color primaries : BT.709
Transfer characteristics : BT.709
Matrix coefficients : BT.709
Audio #1
ID : 2
Format : AC-3
Format/Info : Audio Coding 3
Mode extension : CM (complete main)
Format settings, Endianness : Big
Codec ID : A_AC3
Duration : 22 min 10 s
Bit rate mode : Constant
Bit rate : 192 kb/s
Channel(s) : 2 channels
Channel positions : Front: L R
Sampling rate : 48.0 kHz
Frame rate : 31.250 FPS (1536 spf)
Compression mode : Lossy
Stream size : 30.5 MiB (4%)
Language : Russian
Default : Yes
Forced : No
Audio #2
ID : 3
Format : AAC
Format/Info : Advanced Audio Codec
Format profile : LC
Codec ID : A_AAC
Duration : 22 min 10 s
Bit rate : 153 kb/s
Channel(s) : 2 channels
Channel positions : Front: L R
Sampling rate : 48.0 kHz
Frame rate : 46.875 FPS (1024 spf)
Compression mode : Lossy
Stream size : 24.2 MiB (3%)
Language : English
Default : No
Forced : No
Text
ID : 4
Format : UTF-8
Codec ID : S_TEXT/UTF8
Codec ID/Info : UTF-8 Plain Text
Duration : 21 min 56 s
Bit rate : 124 b/s
Count of elements : 586
Stream size : 20.0 KiB (0%)
Language : English
Default : No
Forced : No

Скриншоты



Внимание! Раздача ведётся путём добавления новых серий

Внимание! Раздача ведётся путём добавления новых серий; при каждом добавлении создаётся новый торрент. Чтобы начать докачку новой серии, пользователям необходимо сделать следующее:
(1) остановить скачивание,
(2) удалить старый торрент у себя из клиента (старые серии удалять не надо),
(3) скачать новый торрент и запустить его у себя в клиенте вместо старого, при этом указать клиенту путь в старую папку куда и должно происходить скачивание новых серий.
Ваш клиент при этом должен произвести хеширование (проверку) старой папки (если не производит сам - помогите ему сделать это), и будет докачивать только те серии которых у вас ещё нет. Старые серии при этом не удаляются, а продолжают раздаваться!
Eсли вы уже удалили старые серии, то предотвратить повторную закачку старых серий можно, отжав галочку в соответствующих местах при запуске нового торрента. По возможности, желательно не удалять старые серии как можно дольше чтобы релизёр не столько продолжал раздавать старые серии, а смог сконцентрироваться на новых.
[www.cybertorrent.ru].t2830.torrent 
Торрент: Зарегистрирован [ 2018-02-16 14:35 ] · A4115266F0688ADC0E293433A4D42ED0490CD167

Скачать .torrent

Скачать

23 KB

Статус: проверено
Скачан: 0 раз
Размер: 8,5 GB
Профиль [ЛС]
Показать сообщения:    

Текущее время: 18-Июн 20:50

Часовой пояс: UTC ± 0



Вы не можете начинать темы
Вы не можете отвечать на сообщения
Вы не можете редактировать свои сообщения
Вы не можете удалять свои сообщения
Вы не можете голосовать в опросах
Вы не можете прикреплять файлы к сообщениям
Вы можете скачивать файлы