Статистика раздачи
Размер:  6,07 GB   |    Зарегистрирован:  8 месяцев 1 день   |    Скачан:  0 раз

Полного источника не было: Никогда

 
   
 
 

Volga ®

Пол:
Не указан
Стаж:
8 месяцев 2 дня
Сообщений:
92

Братья Эрлих "Магия - грандиозное шоу на стадионе" / Ehrlich Brothers live! Magic - Die Weltrekordshow im Stadion
Дата/Год выпуска: 2016
Страна: Германия
Жанр: Шоу, фокусы
Продолжительность: 01:28:58
Перевод: Не требуется
Русские субтитры: нет
Чаптеры: есть
Оригинальная аудиодорожка: немецкий
Телеканал: RTL HD
Описание: Грандиозное шоу, представленное братьями Эрлих на сорокатысячным стадионе во Франкфурте,
не оставит равнодушным ни одного из любителей современной магии.
Доп. информация: файл любезно предоставил Papa Karlo.
качество: HDTVRip
формат: MKV
Видео: H.264, 1920x1080, 25.000 fps, 9186 Kbps
Аудио: AC3, 2.0 ch, 48000 Hz, 384 Kbps

MediaInfo

Общее
Уникальный идентификатор : 335383790501262711074556686140939951497 (0xFC50918923F6CB419C936CC08163DD89)
Полное имя : E:\Ehrlich Brothers live! Magic - Die Weltrekordshow im Stadion.mkv
Формат : Matroska
Версия формата : Version 4 / Version 2
Размер файла : 6,07 Гбайт
Продолжительность : 1 ч. 28 м.
Общий поток : 9764 Кбит/сек
Дата кодирования : UTC 2016-09-25 16:17:14
Программа кодирования : TMPGEnc MPEG Smart Renderer 4 Version 4.2.4.68
Библиотека кодирования : TMPGEnc MPEG Smart Renderer 4 Version 4.2.4.68
Видео
Идентификатор : 1
Формат : AVC
Формат/Информация : Advanced Video Codec
Профиль формата : High@L4
Параметр CABAC формата : Да
Параметр ReFrames формата : 4 кадра
Идентификатор кодека : V_MPEG4/ISO/AVC
Продолжительность : 1 ч. 28 м.
Битрейт : 9186 Кбит/сек
Ширина : 1920 пикселей
Высота : 1080 пикселей
Соотношение сторон : 16:9
Режим частоты кадров : Постоянный
Частота кадров : 25,000 кадров/сек
Стандарт вещания : Component
Цветовое пространство : YUV
Субдискретизация насыщенности : 4:2:0
Битовая глубина : 8 бит
Тип развёртки : MBAFF
Порядок развёртки : Верхнее поле первое
Бит/(Пиксели*Кадры) : 0.177
Размер потока : 5,71 Гбайт (94%)
Default : Да
Forced : Нет
Цветовой диапазон : Limited
Основные цвета : BT.709
Характеристики трансфера : BT.709
Коэффициенты матрицы : BT.709
Аудио
Идентификатор : 2
Формат : AC-3
Формат/Информация : Audio Coding 3
Расширение режима : CM (complete main)
Параметр Endianness формата : Big
Идентификатор кодека : A_AC3
Продолжительность : 1 ч. 28 м.
Вид битрейта : Постоянный
Битрейт : 384 Кбит/сек
Каналы : 2 канала
Расположение каналов : Front: L R
Частота : 48,0 КГц
Метод сжатия : С потерями
Размер потока : 244 Мбайт (4%)
Язык : German
Default : Да
Forced : Нет
Меню

Скриншоты


Шоу 2015 года: http://cybertorrent.ru/viewtopic.php?t=5069413
Шоу 2017 года: http://cybertorrent.ru/viewtopic.php?t=5469275
[www.cybertorrent.ru].t2825.torrent 
Торрент: Зарегистрирован [ 2018-02-16 14:35 ] · 7B7B6904483AD853C848423E641F2823D59E2554

Скачать .torrent

Скачать

31 KB

Статус: проверено
Скачан: 0 раз
Размер: 6,07 GB
Профиль [ЛС]
Показать сообщения:    

Текущее время: 18-Окт 10:01

Часовой пояс: UTC ± 0



Вы не можете начинать темы
Вы не можете отвечать на сообщения
Вы не можете редактировать свои сообщения
Вы не можете удалять свои сообщения
Вы не можете голосовать в опросах
Вы не можете прикреплять файлы к сообщениям
Вы можете скачивать файлы
Torrents24.ru открытый BitTorrent Torrents24.pl открытый BitTorrent CyberTorrent.ru открытый BitTorrent BtList.ru рейтинг BitTorrent трекеров Яндекс.Метрика