Статистика раздачи
Размер:  22,41 GB   |    Зарегистрирован:  8 месяцев 3 дня   |    Скачан:  0 раз

Полного источника не было: Никогда

 
   
 
 

Zima ®

Пол:
Не указан
Стаж:
8 месяцев 5 дней
Сообщений:
42

Шедевры отечественной мультипликации. Сказки А. С. Пушкина
-Страна: СССР
Продолжительность: 02:41:52
Перевод: не требуется
субтитры: отсутствуют-Название: Сказка о рыбаке и рыбке
Год выхода: 1950
Жанр: мультфильм, короткометражка, фэнтези, семейный
Режиссер: Михаил Цехановский
В ролях: Анастасия Зуева, Мария Бабанова, Борис Чирков, Владимир Грибков
Описание: Жили-были старик со старухой у самого синего моря. Закинул невод старик в море и поймал рыбку, да не простую, а золотую...
-Название: Сказка о мертвой царевне и о семи богатырях
Год выхода: 1951
Жанр: мультфильм, короткометражка, фэнтези, мелодрама, семейный
Режиссер: Иван Иванов-Вано
Описание: Мультипликационный фильм по сказке А. С. Пушкина. Новая жена царя хочет избавиться от своей падчерицы и отправляет её в лес на верную гибель. Царевна находит приют в лесной чаще у семи богатырей. Царица, узнав об этом, обманом отравляет её…
-Название: Сказка о золотом петушке
Год выхода: 1967
Жанр: мультфильм, фэнтези, драма, семейный, короткометражка
Режиссер: Александра Снежко-Блоцкая
В ролях: Алексей Грибов, Степан Бубнов, Алексей Консовский, Анатолий Кубацкий, Юрий Медведев, Леонид Пирогов, Мария Виноградова, Георгий Вицин, Лидия Рюмина
Описание: Экранизация одноименной сказки Пушкина.
-Название: Сказка о попе и о работнике его Балде
Год выхода: 1973
Жанр: мультфильм, короткометражка
Режиссер: Инесса Ковалевская
В ролях: Олег Анофриев
Описание: Музыкальное представление по мотивам сказки Пушкина.
-Название: Сказка о царе Салтане
Год выхода: 1984
Жанр: мультфильм, фэнтези, семейный
Режиссер: Иван Иванов-Вано, Лев Мильчин
В ролях: Анастасия Зуева, Михаил Зимин, Алексей Золотницкий, Роман Филиппов, А. Покровская, Николай Граббе, Мария Виноградова, Борис Новиков, Людмила Иванова, Авангард Леонтьев
Описание: Три девицы под окном пряли поздно вечерком... А потом много чего было: и любовь, и клевета, и предательство, и чудеса, и множество волшебных приключений, и тридцать три богатыря, и, конечно же, счастливый конец...
-Качество: Blu-ray 1080i раздача от:
Формат: BDMV
Видео: MPEG-4 AVC Video 18299 kbps 1080i / 25 fps / 16:9 / High Profile 4.0
Аудио: 48 kHz, AC3 Dolby Digital, 3/2 (L,C,R,l,r) + LFE ch, ~448 kbps-

BDInfo

DISC INFO:
Disc Title: SKAZKI_PUSHKINA_HDCLUB
Disc Size: 24 066 820 200 bytes
Protection: AACS
BD-Java: Yes
Extras: 50Hz Content
BDInfo: 0.5.8
PLAYLIST REPORT:
Name: 01011.MPLS
Length: 2:41:52.200 (h:m:s.ms)
Size: 23 874 551 808 bytes
Total Bitrate: 19,67 Mbps
VIDEO:
Codec Bitrate Description
----- ------- -----------
MPEG-4 AVC Video 18299 kbps 1080i / 25 fps / 16:9 / High Profile 4.0
AUDIO:
Codec Language Bitrate Description
----- -------- ------- -----------
Dolby Digital Audio Russian 448 kbps 5.1 / 48 kHz / 448 kbps / DN -4dB
FILES:
Name Time In Length Size Total Bitrate
---- ------- ------ ---- -------------
00002.M2TS 0:00:00.000 0:18:40.520 3 290 388 480 23 492
00003.M2TS 0:18:40.520 0:29:57.520 4 284 536 832 19 069
00004.M2TS 0:48:38.040 0:30:11.160 4 365 465 600 19 283
00005.M2TS 1:18:49.200 0:53:05.400 7 617 816 576 19 132
00006.M2TS 2:11:54.600 0:29:57.600 4 316 344 320 19 209
[www.cybertorrent.ru].t2814.torrent 
Торрент: Зарегистрирован [ 2018-02-16 14:35 ] · 5DBEFD3996586F73982ECDBEC348CCB7584F1540

Скачать .torrent

Скачать

117 KB

Статус: проверено
Скачан: 0 раз
Размер: 22,41 GB
Профиль [ЛС]
Показать сообщения:    

Текущее время: 20-Окт 13:13

Часовой пояс: UTC ± 0



Вы не можете начинать темы
Вы не можете отвечать на сообщения
Вы не можете редактировать свои сообщения
Вы не можете удалять свои сообщения
Вы не можете голосовать в опросах
Вы не можете прикреплять файлы к сообщениям
Вы можете скачивать файлы
Torrents24.ru открытый BitTorrent Torrents24.pl открытый BitTorrent CyberTorrent.ru открытый BitTorrent BtList.ru рейтинг BitTorrent трекеров Яндекс.Метрика