BitTorrent клиенты



Прорыв (Виталий Лукин) [2005, Россия, драма, военный, DVD9] Original Rus

Ответить на тему
 
Автор Сообщение

Ангел ®

Пол: Не указан

Стаж: 1 год

Сообщений: 954

Создавать темы 08-Фев-2018 15:47

[Цитировать]

Прорыв
Страна: Россия
Жанр: драма, военный
Год выпуска: 2005
Продолжительность: 01:23:10
Перевод: Не требуется
Субтитры: нет
Оригинальная аудиодорожка: русская
Режиссер: Виталий Лукин
В ролях: Игорь Лифанов, Анатолий Котенев, Александр Песков, Марина Могилевская, Александр Цуркан, Александр Клюквин, Наталья Панова, Мария Глазкова, Андрей Богданов, Виктор Низовой
Описание: Чечня, 2000 год. Антитеррористическая операция в самом разгаре. Армейская разведка прочесывает квадрат за квадратом, пытаясь обнаружить скрывающиеся в горах банды. Одна из разведгрупп, напоровшись в Аргунском ущелье на небольшой отряд боевиков, вступает в бой. Но вскоре становится ясно — ситуация намного серьезней.
К выходу из ущелья приближается хорошо вооруженная двухтысячная бандитская группировка. Под началом полевого командира Мурада собрались террористы всех мастей и национальностей. Есть даже бывшие русские офицеры. Цель операции ? прорваться через позиции федеральных войск на территорию Дагестана и, захватив как можно больше заложников из числа мирного населения, начать диктовать свои условия. Для прорыва выбран наименее защищенный участок.
Дополнительные материалы: Смотрите на DVD, Создатели и исполнители, Фильм о фильме
Меню: есть, анимированное
Тип релиза: DVD9
Контейнер: DVD-Video
Видео: PAL 4:3 (720x576(0.685)) MPEG Video, 25,000 кадр/сек, 7107 Кбит/сек
Аудио: Russian (Dolby AC-3, 6 ch) 448 Кбит/сек, 48.0 КГц
Аудио 2: Russian (DTS, 6 ch) 768 Кбит/сек, 48.0 КГц

MediaInfo

Общее
Полное имя : Proriv\VIDEO_TS\VTS_04_1.VOB
Формат : MPEG-PS
Размер файла : 1024 Мбайт
Продолжительность : 16 м. 53 с.
Режим общего битрейта : Переменный
Общий поток : 8478 Кбит/сек
Видео
Идентификатор : 224 (0xE0)
Формат : MPEG Video
Версия формата : Version 2
Профиль формата : Main@Main
Параметр BVOP формата : Да
Параметр матрицы формата : Выборочная
Параметр GOP формата : M=3, N=15
Структура изображения : Frame
Продолжительность : 16 м. 53 с.
Вид битрейта : Переменный
Битрейт : 7107 Кбит/сек
Максимальный битрейт : 8000 Кбит/сек
Ширина : 720 пикселей
Высота : 576 пикселей
Соотношение сторон : 4:3
Частота кадров : 25,000 кадров/сек
Стандарт вещания : PAL
Цветовое пространство : YUV
Субдискретизация насыщенности : 4:2:0
Битовая глубина : 8 бит
Тип развёртки : Чересстрочная
Порядок развёртки : Верхнее поле первое
Метод сжатия : С потерями
Бит/(Пиксели*Кадры) : 0.685
Временной код первого кадра : 00:01:00:00
Оригинал временного кода : Group of pictures header
GOP, открыто/закрыто : Закрыто
Размер потока : 858 Мбайт (84%)
Аудио #1
Идентификатор : 189 (0xBD)-128 (0x80)
Формат : AC-3
Формат/Информация : Audio Coding 3
Параметр Endianness формата : Big
Режим смешивания : DVD-Video
Продолжительность : 16 м. 52 с.
Вид битрейта : Постоянный
Битрейт : 448 Кбит/сек
Каналы : 6 каналов
Расположение каналов : Front: L C R, Side: L R, LFE
Частота : 48,0 КГц
Частота кадров : 31,250 кадров/сек (1536 spf)
Битовая глубина : 16 бит
Метод сжатия : С потерями
Размер потока : 54,1 Мбайт (5%)
ServiceKind/String : Complete Main
Аудио #2
Идентификатор : 189 (0xBD)-137 (0x89)
Формат : DTS
Формат/Информация : Digital Theater Systems
Режим : 16
Параметр Endianness формата : Big
Режим смешивания : DVD-Video
Продолжительность : 16 м. 52 с.
Вид битрейта : Постоянный
Битрейт : 755 Кбит/сек
Каналы : 6 каналов
Расположение каналов : Front: L C R, Side: L R, LFE
Частота : 48,0 КГц
Частота кадров : 93,750 кадра/сек (512 spf)
Битовая глубина : 24 бит
Метод сжатия : С потерями
Размер потока : 91,1 Мбайт (9%)

Скриншоты меню

Скриншоты

Скриншоты доп. материалов

[Профиль] [ЛС]
Показать сообщения:    
Ответить на тему

Текущее время: 21-Фев 23:33

Часовой пояс: UTC + 3



Вы не можете начинать темы
Вы не можете отвечать на сообщения
Вы не можете редактировать свои сообщения
Вы не можете удалять свои сообщения
Вы не можете голосовать в опросах
Вы не можете прикреплять файлы к сообщениям
Вы можете скачивать файлы